Вы используете незарегистрированную версию компонента "Вкладки"!

Поиск

(Avant-Garde, Free Jazz) Ellery Eskelin - Jazz Trash - 1995, APE (image+.cue), lossless

(Avant-Garde, Free Jazz) Ellery Eskelin - Jazz Trash - 1995, APE (image+.cue), lossless
Треклист:
Ellery Eskelin - Jazz Trash
Жанр: Avant-Garde, Free Jazz
Год выпуска диска: 1995
Производитель диска: Songlines (Canada), SGL 1506-2
Аудио кодек: APE
Тип рипа: image+.cue
Битрейт аудио: lossless
Продолжительность: 71'51''
Трэклист:
1/ Jazz Trash (Eskelin) 7:20
2/ Harmonia (Eskelin) 3:57
3/ Jargon (Eskelin) 12:44
4/ Interfaith (Eskelin) 5:07
5/ Untitled One (Eskelin) 8:14
6/ Rain (Eskelin) 5:24
7/ Trip Wire (Eskelin) 13:00
8/ 100 Days (Eskelin) 7:01
9/ 40 West (Eskelin) 8:25
Доп. информация:
Recorded on October 27 & 28, 1994 at Clinton Studio B, New York City
Produced by Karl Hereim
Ellery Eskelin: tenor;
Andrea Parkins: accordion, sampler;
Jim Black: drums.
 
Отчёт EAC
Exact Audio Copy V0.99 prebeta 4 from 23. January 2008
Отчёт EAC об извлечении, выполненном 6. мая 2009, 14:12
Ellery Eskelin / Jazz Trash
Дисковод: TSSTcorpCDDVDW SH-S203D Adapter: 3 ID: 0
Режим чтения : Достоверность
Использование точного потока : Да
Отключение кэша аудио : Да
Использование указателей C2 : Нет
Коррекция смещения при чтении : 6
Способность читать области Lead-in и Lead-out : Нет
Заполнение пропущенных сэмплов тишиной : Да
Удаление блоков с тишиной в начале и конце : Нет
При вычислениях CRC использовались нулевые сэмплы : Да
Интерфейс : Установленный внешний ASPI-интерфейс
Выходной формат : Внутренние WAV-операции
Формат сэмплов : 44.100 Гц; 16 бит; стерео
TOC извлечённого CD
Трек | Старт | Длительность | Начальный сектор | Конечный сектор
---------------------------------------------------------------------
1 | 0:00.00 | 7:26.40 | 0 | 33489
2 | 7:26.40 | 4:01.30 | 33490 | 51594
3 | 11:27.70 | 12:48.67 | 51595 | 109261
4 | 24:16.62 | 5:12.73 | 109262 | 132734
5 | 29:29.60 | 8:20.17 | 132735 | 170251
6 | 37:50.02 | 5:29.40 | 170252 | 194966
7 | 43:19.42 | 13:04.58 | 194967 | 253824
8 | 56:24.25 | 7:05.45 | 253825 | 285744
9 | 63:29.70 | 8:25.12 | 285745 | 323631
Характеристики диапазона извлечения и сообщения об ошибках
Выбранный диапазон
Имя файла F:\FOS\Music\ELLERY ESKELIN\Ellery Eskelin - Jazz Trash - 1994\Ellery Eskelin - Jazz Trash - 1994.wav
Пиковый уровень 100.0 %
Качество диапазона 100.0 %
CRC копии BD725F93
Копирование... OK
Ошибок не произошло
Конец отчёта
Any questions -> support@pro-jazz.com. По всем вопросам пишите -> support@pro-jazz.com
10:50
167
Нет комментариев. Ваш будет первым!