Вы используете незарегистрированную версию компонента "Вкладки"!

Поиск

(Modern Creative) Kamau Daaood - Leimert Park - 1997, FLAC (image+.cue), lossless

(Modern Creative) Kamau Daaood - Leimert Park - 1997, FLAC (image+.cue), lossless
Треклист:
Kamau Daaood - Leimert Park
Жанр: Modern Creative
Страна-производитель диска: США
Год издания: 1997
Издатель (лейбл): MAMA Foundation
Номер по каталогу: MMF 1019
Аудиокодек: FLAC (*.flac)
Тип рипа: image+.cue
Битрейт аудио: lossless
Продолжительность: 60:38
Источник (релизер): dreadbull
Наличие сканов в содержимом раздачи: да
Треклист:
01. Leimert Park /Herb Graham, Jr./ 4:20
02. Tears /Kamau Daáood/ 5:53
03. Her (for my wife, Baadia) /Billy Higgins/ 4:11
04. Deep River in Her Voice (for Billie Holiday) /Kamau Daáood/ 5:48
05. Balm of Gilead (for Billie Holiday & Lester Young) /Kamau Daáood/ 3:41
06. Sunbathing in My Tears /Munyungo Jackson/ 4:35
07. The Men /Ron Carter/ 3:20
08. Liberator of the Spirit (for John Coltrane) /Billy Higgins/ 5:47
09. World Music /Billy Higgins, Phil Vieux, Art Davis/ 2:34
10. Ancestral Echoes /Horace Tapscott/ 4:02
11. Army of Healers /Horace Tapscott/ 5:47
12. Art Blakey's Drumsticks /Nate Morgan, Dwight Trible/ 6:21.
All words by Kamau Daáood.
 
Лог создания рипа
Exact Audio Copy V1.0 beta 3 from 29. August 2011
EAC extraction logfile from 21. April 2012, 15:35
kamau Daáood / Leimert Park
Used drive : ASUS DRW-22B2L Adapter: 0 ID: 1
Read mode : Secure
Utilize accurate stream : Yes
Defeat audio cache : Yes
Make use of C2 pointers : No
Read offset correction : 6
Overread into Lead-In and Lead-Out : No
Fill up missing offset samples with silence : Yes
Delete leading and trailing silent blocks : No
Null samples used in CRC calculations : Yes
Used interface : Native Win32 interface for Win NT & 2000
Used output format : User Defined Encoder
Selected bitrate : 128 kBit/s
Quality : High
Add ID3 tag : Yes
Command line compressor : C:\Program Files\FLAC\flac.exe
Additional command line options : -8 -V -T "ARTIST=%artist%" -T "TITLE=%title%" -T "ALBUM=%albumtitle%" -T "DATE=%year%" -T "TRACKNUMBER=%tracknr%" -T "GENRE=%genre%" -T "PERFORMER=%albuminterpret%" -T "COMPOSER=%composer%" %haslyrics%--tag-from-file=LYRICS="%lyricsfile%"%haslyrics% -T "ALBUMARTIST=%albumartist%" -T "DISCNUMBER=%cdnumber%" -T "TOTALDISCS=%totalcds%" -T "TOTALTRACKS=%numtracks%" -T "COMMENT=%comment%" %source% -o %dest%
TOC of the extracted CD
Track | Start | Length | Start sector | End sector
---------------------------------------------------------
1 | 0:00.00 | 4:23.40 | 0 | 19764
2 | 4:23.40 | 5:55.72 | 19765 | 46461
3 | 10:19.37 | 4:14.15 | 46462 | 65526
4 | 14:33.52 | 5:47.63 | 65527 | 91614
5 | 20:21.40 | 3:44.02 | 91615 | 108416
6 | 24:05.42 | 4:38.35 | 108417 | 129301
7 | 28:44.02 | 3:23.23 | 129302 | 144549
8 | 32:07.25 | 5:49.30 | 144550 | 170754
9 | 37:56.55 | 2:35.47 | 170755 | 182426
10 | 40:32.27 | 4:05.20 | 182427 | 200821
11 | 44:37.47 | 5:50.18 | 200822 | 227089
12 | 50:27.65 | 10:10.15 | 227090 | 272854
Range status and errors
Selected range
Filename D:\Donkey Files\Kamau Daaood - Leimert Park (1997, Mama) [eac-flac-scans] byDrBull\Leimert Park.wav
Peak level 99.9 %
Extraction speed 1.1 X
Range quality 99.9 %
Test CRC 4FF42253
Copy CRC 4FF42253
Copy OK
No errors occurred
AccurateRip summary
Track 1 accurately ripped (confidence 1) [2196B503] (AR v1)
Track 2 accurately ripped (confidence 1) [DC394F4D] (AR v1)
Track 3 accurately ripped (confidence 1) [0885E98C] (AR v1)
Track 4 cannot be verified as accurate (confidence 1) [BB3C55F3], AccurateRip returned [AFEE3916] (AR v2)
Track 5 accurately ripped (confidence 1) [BEE86A47] (AR v1)
Track 6 accurately ripped (confidence 1) [0CA45762] (AR v1)
Track 7 accurately ripped (confidence 1) [64BAB0AC] (AR v1)
Track 8 accurately ripped (confidence 1) [65BFA148] (AR v1)
Track 9 accurately ripped (confidence 1) [F0FC01DE] (AR v1)
Track 10 accurately ripped (confidence 1) [71625BFE] (AR v1)
Track 11 accurately ripped (confidence 1) [AB3275A7] (AR v1)
Track 12 accurately ripped (confidence 1) [908469F0] (AR v1)
11 track(s) accurately ripped
1 track(s) could not be verified as accurate
Some tracks could not be verified as accurate
End of status report
==== Log checksum 086D8261335D71F4ED74C53472CBB484C3925678BBC26EB1C2DD1E34EC4D03C3 ====
 
Содержание индексной карты (.CUE)
REM GENRE Jazz
REM DATE 1997
REM DISCID AF0E360C
REM COMMENT "ExactAudioCopy v1.0b3"
PERFORMER "kamau Daaood"
TITLE "Leimert Park"
FILE "Leimert Park.flac" WAVE
TRACK 01 AUDIO
TITLE "Leimert Park"
PERFORMER "kamau Daaood"
INDEX 01 00:00:00
TRACK 02 AUDIO
TITLE "Tears"
PERFORMER "kamau Daaood"
INDEX 00 04:20:50
INDEX 01 04:23:40
TRACK 03 AUDIO
TITLE "Her"
PERFORMER "kamau Daaood"
INDEX 00 10:16:40
INDEX 01 10:19:37
TRACK 04 AUDIO
TITLE "Deep River in Her Voice"
PERFORMER "kamau Daaood"
INDEX 00 14:30:25
INDEX 01 14:33:52
TRACK 05 AUDIO
TITLE "Balm of Gilead"
PERFORMER "kamau Daaood"
INDEX 01 20:21:40
TRACK 06 AUDIO
TITLE "Sunbathing in My Tears"
PERFORMER "kamau Daaood"
INDEX 00 24:02:32
INDEX 01 24:05:42
TRACK 07 AUDIO
TITLE "The Men"
PERFORMER "kamau Daaood"
INDEX 00 28:40:22
INDEX 01 28:44:02
TRACK 08 AUDIO
TITLE "Liberator of the Spirit"
PERFORMER "kamau Daaood"
INDEX 00 32:04:50
INDEX 01 32:07:25
TRACK 09 AUDIO
TITLE "World Music"
PERFORMER "kamau Daaood"
INDEX 00 37:54:57
INDEX 01 37:56:55
TRACK 10 AUDIO
TITLE "Ancestral Echoes"
PERFORMER "kamau Daaood"
INDEX 00 40:30:22
INDEX 01 40:32:27
TRACK 11 AUDIO
TITLE "Army of Healers"
PERFORMER "kamau Daaood"
INDEX 00 44:34:57
INDEX 01 44:37:47
TRACK 12 AUDIO
TITLE "Art Blakey's Drumsticks"
PERFORMER "kamau Daaood"
INDEX 00 50:24:67
INDEX 01 50:27:65
 
Review by Michael G. Nastos
On this definitive fusion of jazz and poetry, Daa'ood rails against oppression, speaks out about jazz musicians, and reflects the cultural mood from his perch in Leimert Park, CA. Musical help comes from the B Sharp Quartet, drummer Billy Higgins, pianists Nate Morgan and Horace Tapscott, bassist Dr. Art Davis, saxophonists Phil Vieux and Michael Session, flutist James Newton, and others. Daa'ood's voice is slightly gruff, but direct and powerful. On the title cut, Daa'ood defines his style as "old-school stories with a bebop tongue to the hip-hop future." He lambasts popular music on the bluesy "Army of Healers" and concludes on "Art Blakey's Drumsticks" that society would rather have fatherless children "pick cotton in cyberspace." On "Ancestral Echoes," Tapscott's reverent piano inspires Daa'ood to ponder, "In the wind, we learn that the diehards do not die, they only echo through the universe as light." "Her," "Balm of Gilead," and "Deep River in Her Voice" show a different side of Daa'ood -- one that longs not only for justice, but for peace and quiet. This is the finest combination of jazz and poetry to come out in the '90s, bar none.
 
Состав
Kamau Daáood - spoken vocals;
James Newton - flute (#2,4);
Phil Vieux - bass clarinet (#2), tenor sax (#8);
Randall Willis - tenor (#5) & soprano (#7) sax;
Michael Session - soprano (#9) & alto (#11) sax;
Nate Morgan - piano (#1,2,12);
Rodney Lee - Rhodes electric piano & organ (#1), piano (#4,5);
Horace Tapscott - piano (#10,11);
Billy Higgins - vocals & guitar (#3), drums (#2,8), gambre (#9);
Osama Afifi - bass (#1,4,5,7);
Dr. Art Davis - bass (#2,8)
Roberto Miranda - bass (#11,12);
Herb Graham, Jr. - drums (#1,4,5,7,9), gong (#9);
Willie Jones III - drums (#11,12);
Munyungo Jackson - percussion (#3,6,7);
Karen Briggs - violin (#4);
Carmen Bradford (#3), Dwight Trible (#12) - vocals.
Any questions -> support@pro-jazz.com. По всем вопросам пишите -> support@pro-jazz.com
02:24
156
Нет комментариев. Ваш будет первым!