Вы используете незарегистрированную версию компонента "Вкладки"!

Поиск

(Avant-Garde Jazz, Free Improvisation) Air - Air Mail - 1981, APE (image+.cue), lossless

(Avant-Garde Jazz, Free Improvisation) Air - Air Mail - 1981, APE (image+.cue), lossless
Треклист:
•Air - Air Mail•
Жанр: Avant-Garde Jazz, Free Improvisation
Страна-производитель диска: Italy
Год издания: 1981
Издатель (лейбл): Black Saint
Номер по каталогу: 120049-2
Аудиокодек: APE (*.ape)
Тип рипа: image+.cue
Битрейт аудио: lossless
Продолжительность: 00:35:40
Источник (релизер): barin99
Наличие сканов в содержимом раздачи: да
Треклист:
01. BK [08:54]
02. RB [08:19]
03. CT,JL [18:25]
Personnel:
Henry Threadgill — Flute, Sax
Fred Hopkins — Bass
Steve McCall — Bells, Drums
 
Лог создания рипа
Exact Audio Copy V1.0 beta 3 from 29. August 2011
EAC extraction logfile from 23. June 2012, 17:19
Air / Air Mail
Used drive : TSSTcorpDVD+-RW TS-U633A Adapter: 0 ID: 1
Read mode : Secure
Utilize accurate stream : Yes
Defeat audio cache : Yes
Make use of C2 pointers : No
Read offset correction : 6
Overread into Lead-In and Lead-Out : No
Fill up missing offset samples with silence : Yes
Delete leading and trailing silent blocks : No
Null samples used in CRC calculations : Yes
Used interface : Native Win32 interface for Win NT & 2000
Used output format : Internal WAV Routines
Sample format : 44.100 Hz; 16 Bit; Stereo
TOC of the extracted CD
Track | Start | Length | Start sector | End sector
---------------------------------------------------------
1 | 0:00.33 | 8:57.17 | 33 | 40324
2 | 8:57.50 | 8:22.18 | 40325 | 77992
3 | 17:19.68 | 18:25.70 | 77993 | 160937
Range status and errors
Selected range
Filename C:\Documents and Settings\vbarinov\My Documents\Barin99\Air - Air Mail\Air - Air Mail.wav
Peak level 96.8 %
Extraction speed 3.6 X
Range quality 99.9 %
Copy CRC 7A1A5A71
Copy OK
No errors occurred
AccurateRip summary
Track 1 accurately ripped (confidence 7) [877959F7] (AR v1)
Track 2 accurately ripped (confidence 7) [2C290FDA] (AR v1)
Track 3 accurately ripped (confidence 6) [808AE3EC] (AR v1)
All tracks accurately ripped
End of status report
==== Log checksum 1F0E28D1817518B8A531FE9C0D3DF434BD86DD58EC8CB2D7EB2F8037E30B7937 ====
 
Содержание индексной карты (.CUE)
REM GENRE Avantgarde
REM DATE 1981
REM DISCID 19086103
REM COMMENT "ExactAudioCopy v1.0b3"
PERFORMER "Air"
TITLE "Air Mail"
FILE "Air - Air Mail.wav" WAVE
TRACK 01 AUDIO
TITLE "BK"
PERFORMER "Air"
INDEX 00 00:00:00
INDEX 01 00:00:33
TRACK 02 AUDIO
TITLE "RB"
PERFORMER "Air"
INDEX 00 08:54:71
INDEX 01 08:57:50
TRACK 03 AUDIO
TITLE "CT,JL"
PERFORMER "Air"
INDEX 00 17:17:49
INDEX 01 17:19:68
Any questions -> support@pro-jazz.com. По всем вопросам пишите -> support@pro-jazz.com
02:24
134
Нет комментариев. Ваш будет первым!