Вы используете незарегистрированную версию компонента "Вкладки"!

Поиск

(Free Jazz, Avant-Garde Jazz) Steve Reid - Nova - 1976, FLAC (tracks+.cue), lossless

(Free Jazz, Avant-Garde Jazz) Steve Reid - Nova - 1976, FLAC (tracks+.cue), lossless
Треклист:
Steve Reid / Nova
Жанр: Free Jazz, Avant-Garde Jazz
Страна-производитель диска: UK
Год издания: 2000
Издатель (лейбл): Universal Sound
Номер по каталогу: US CD 15
Страна: US
Аудиокодек: FLAC (*.flac)
Тип рипа: tracks+.cue
Битрейт аудио: lossless
Продолжительность: 31:32
Источник (релизер): waffles.fm
Наличие сканов в содержимом раздачи: нет
Треклист:
1 Nova
2 Lions Of Judah
3 Free Spirits - Unknown
4 Long Time Black
5 Sixth House
 
Лог создания рипа
X Lossless Decoder version 20090930 (110.0)
XLD extraction logfile from 2009-10-15 14:22:36 +0200
Steve Reid / Nova
Used drive : HL-DT-ST DVDRW GS21N (revision SA15)
Use cdparanoia mode : YES (CDParanoia III 10.2 engine)
Disable audio cache : OK for the drive with cache less than 2750KB
Make use of C2 pointers : NO
Read offset correction : 667
Max retry count : 100
TOC of the extracted CD
Track | Start | Length | Start sector | End sector
---------------------------------------------------------
1 | 00:00:00 | 03:49:21 | 0 | 17195
2 | 03:49:21 | 05:37:67 | 17196 | 42537
3 | 09:27:13 | 05:48:61 | 42538 | 68698
4 | 15:15:74 | 08:02:53 | 68699 | 104901
5 | 23:18:52 | 08:13:65 | 104902 | 141941
List of alternate offset correction values
# | Absolute | Relative | Confidence
------------------------------------------
1 | 3 | -664 | 1
All Tracks
Album gain : -5.23 dB
Peak : 0.988556
Track 01
Filename : /Users/Music/XLD rips/Steve Reid - 01 Nova.flac
Track gain : -4.43 dB
Peak : 0.809875
CRC32 hash (test run) : C61CDAF7
CRC32 hash : C61CDAF7
CRC32 hash (skip zero) : D6859F06
AccurateRip signature : 22887074
->Accurately ripped! (confidence 1)
(matched with the different offset correction value;
calculated using an additional offset of -664;
the signature after correction is: 15A1648C)
Statistics
Read error : 0
Skipped (treated as error) : 0
Edge jitter error (maybe fixed) : 0
Atom jitter error (maybe fixed) : 0
Drift error (maybe fixed) : 0
Dropped bytes error (maybe fixed) : 0
Duplicated bytes error (maybe fixed) : 0
Inconsistency in error sectors : 0
Track 02
Filename : /Users/Music/XLD rips/Steve Reid - 02 Lions of Juda.flac
Track gain : -7.20 dB
Peak : 0.988556
CRC32 hash (test run) : 68B44169
CRC32 hash : 68B44169
CRC32 hash (skip zero) : 27B00F42
AccurateRip signature : 89247040
->Accurately ripped! (confidence 1)
(matched with the different offset correction value;
calculated using an additional offset of -664;
the signature after correction is: F81064D0)
Statistics
Read error : 0
Skipped (treated as error) : 0
Edge jitter error (maybe fixed) : 0
Atom jitter error (maybe fixed) : 0
Drift error (maybe fixed) : 0
Dropped bytes error (maybe fixed) : 0
Duplicated bytes error (maybe fixed) : 0
Inconsistency in error sectors : 0
Track 03
Filename : /Users/Music/XLD rips/Steve Reid - 03 Free Spirits-Unknown.flac
Track gain : -2.88 dB
Peak : 0.885681
CRC32 hash (test run) : 17B26F61
CRC32 hash : 17B26F61
CRC32 hash (skip zero) : 18D42E8A
AccurateRip signature : 7DACF453
->Accurately ripped! (confidence 1)
(matched with the different offset correction value;
calculated using an additional offset of -664;
the signature after correction is: 9C971D8B)
Statistics
Read error : 0
Skipped (treated as error) : 0
Edge jitter error (maybe fixed) : 0
Atom jitter error (maybe fixed) : 0
Drift error (maybe fixed) : 0
Dropped bytes error (maybe fixed) : 0
Duplicated bytes error (maybe fixed) : 0
Inconsistency in error sectors : 0
Track 04
Filename : /Users/Music/XLD rips/Steve Reid - 04 Long Time Black.flac
Track gain : -5.59 dB
Peak : 0.988556
CRC32 hash (test run) : 8E8FF9BD
CRC32 hash : 8E8FF9BD
CRC32 hash (skip zero) : D6E02CD1
AccurateRip signature : 7C9478FA
->Accurately ripped! (confidence 1)
(matched with the different offset correction value;
calculated using an additional offset of -664;
the signature after correction is: B2E6BB62)
Statistics
Read error : 0
Skipped (treated as error) : 0
Edge jitter error (maybe fixed) : 0
Atom jitter error (maybe fixed) : 0
Drift error (maybe fixed) : 0
Dropped bytes error (maybe fixed) : 0
Duplicated bytes error (maybe fixed) : 0
Inconsistency in error sectors : 0
Track 05
Filename : /Users/Music/XLD rips/Steve Reid - 05 Sixth House.flac
Track gain : -4.26 dB
Peak : 0.962372
CRC32 hash (test run) : 4C9F57EC
CRC32 hash : 4C9F57EC
CRC32 hash (skip zero) : E1894304
AccurateRip signature : 9FD6928B
->Accurately ripped! (confidence 1)
(matched with the different offset correction value;
calculated using an additional offset of -664;
the signature after correction is: 1671984B)
Statistics
Read error : 0
Skipped (treated as error) : 0
Edge jitter error (maybe fixed) : 0
Atom jitter error (maybe fixed) : 0
Drift error (maybe fixed) : 0
Dropped bytes error (maybe fixed) : 0
Duplicated bytes error (maybe fixed) : 0
Inconsistency in error sectors : 0
No errors occurred
End of status report
 
Содержание индексной карты (.CUE)
TITLE "Nova"
PERFORMER "Steve Reid"
REM GENRE "Jazz"
REM DATE 1976
FILE "Steve Reid - 01 Nova.wav" WAVE
TRACK 01 AUDIO
TITLE "Nova"
INDEX 01 00:00:00
TRACK 02 AUDIO
TITLE "Lions of Juda"
INDEX 00 03:45:31
FILE "Steve Reid - 02 Lions of Juda.wav" WAVE
INDEX 01 00:00:00
TRACK 03 AUDIO
TITLE "Free Spirits-Unknown"
INDEX 00 05:31:31
FILE "Steve Reid - 03 Free Spirits-Unknown.wav" WAVE
INDEX 01 00:00:00
TRACK 04 AUDIO
TITLE "Long Time Black"
INDEX 00 05:44:24
FILE "Steve Reid - 04 Long Time Black.wav" WAVE
INDEX 01 00:00:00
TRACK 05 AUDIO
TITLE "Sixth House"
INDEX 00 07:58:45
FILE "Steve Reid - 05 Sixth House.wav" WAVE
INDEX 01 00:00:00
 
Лог проверки качества
d:\>d:\aucdtect -d/-m0 d:\zzz\*.wav
auCDtect: CD records authenticity detector, version 0.8.2
Copyright (c) 2004 Oleg Berngardt. All rights reserved.
Copyright (c) 2004 Alexander Djourik. All rights reserved.
------------------------------------------------------------
Processing file: [01-05. Nova.wav]
------------------------------------------------------------
This track looks like CDDA with probability 100%
------------------------------------------------------------
Processing file: [02-05. Lions of Juda.wav]
------------------------------------------------------------
This track looks like CDDA with probability 100%
------------------------------------------------------------
Processing file: [03-05. Free Spirits-Unknown.wav]
------------------------------------------------------------
This track looks like CDDA with probability 100%
------------------------------------------------------------
Processing file: [04-05. Long Time Black.wav]
------------------------------------------------------------
This track looks like CDDA with probability 100%
------------------------------------------------------------
Processing file: [05-05. Sixth House.wav]
------------------------------------------------------------
This track looks like CDDA with probability 99%
------------------------------------------------------------
Final Conclusion:
------------------------------------------------------------
These tracks looks like CDDA with probability 100%
Доп. информация:
 
AMG Review
This is an astounding record by an artist who has been criminally neglected. The list of those who could make out jazz funky is a short one. Ornette of course springs to mind as do the musicians of the Art Ensemble and their Chicago brethren. Drummer Steve Reid must now be added to that list. From the swaggering thunder of "Lions of Juda," to the gentler songs that close this album, there's nary a misstep. This music is as beautiful and dangerous as a shower of broken glass -- just when you think you've got a song figured out, this clever group of largely unsung musicians heightens the tension and takes things careening off in an unexpected direction. Have no fear though, these men are always nothing if not firmly in control. This is a wonderful document of a long vanished New York scene that was long on every emotion, not just fury. Find this album and buy it.
 
Состав
Bass [Acoustic] – Luis Angel Falcon
Bass [Fender] – Richard Williams
Drums, Producer – Steve Reid
Piano, Organ [Electric] – Les Walker
Saxophone [Alto, Soprano, Tenor] – Joe Rigby
Trumpet – Ahmed Abdullah
Any questions -> support@pro-jazz.com. По всем вопросам пишите -> support@pro-jazz.com
02:25
285
Нет комментариев. Ваш будет первым!