Вы используете незарегистрированную версию компонента "Вкладки"!

Поиск

(Modern Creative / Free Improvisation / Avant-Garde / Tzadik) Ikue Mori - Class Insecta - 2009, FLAC (tracks+.cue) lossless

(Modern Creative / Free Improvisation / Avant-Garde / Tzadik) Ikue Mori - Class Insecta - 2009, FLAC (tracks+.cue) lossless
Треклист:
Ikue Mori - Class Insecta
Жанр: Modern Creative / Free Improvisation / Avant-Garde / Tzadik
Страна-производитель диска: USA
Год издания диска: 2009
Издатель (лейбл): Tzadik
Номер по каталогу: TZ 7629
Аудио кодек: FLAC (*.flac)
Тип рипа: tracks+.cue
Битрейт аудио: lossless
Продолжительность: 48:41
Источник (релизер): сеть (grasprelease)
Наличие сканов в содержимом раздачи: да
Треклист:
01. Redeye Skimmer
02. Master of Deception
03. Walking Sticks
04. Luciol
05. Hymenoptera
06. Tropical Riodinid
07. Rusty Millipede
08. Hemiptera
09. Fatal Weaver
10. Blattaria
11. Anthromorphic Weevil
12. Ephemeroptera
Personnel:
Ikue Mori: Solo Electronics
 
Лог создания рипа (X Lossless Decoder Log)
X Lossless Decoder version 20100209 (116.0)
XLD extraction logfile from 2010-02-16 15:41:27 +0000
Ikue Mori / Class Insecta
Used drive : MATSHITA DVD-R UJ-85J (revision FCQ5)
Use cdparanoia mode : YES (CDParanoia III 10.2 engine)
Disable audio cache : OK for the drive with cache less than 2750KB
Make use of C2 pointers : NO
Read offset correction : 102
Max retry count : 100
TOC of the extracted CD
Track | Start | Length | Start sector | End sector
---------------------------------------------------------
1 | 00:00:00 | 04:20:54 | 0 | 19553
2 | 04:20:54 | 04:32:02 | 19554 | 39955
3 | 08:52:56 | 03:32:31 | 39956 | 55886
4 | 12:25:12 | 03:56:17 | 55887 | 73603
5 | 16:21:29 | 02:12:21 | 73604 | 83524
6 | 18:33:50 | 04:23:63 | 83525 | 103312
7 | 22:57:38 | 04:50:16 | 103313 | 125078
8 | 27:47:54 | 02:49:61 | 125079 | 137814
9 | 30:37:40 | 06:17:10 | 137815 | 166099
10 | 36:54:50 | 02:30:28 | 166100 | 177377
11 | 39:25:03 | 04:21:45 | 177378 | 196997
12 | 43:46:48 | 04:54:42 | 196998 | 219089
13 | 51:13:15 | 03:50:49 | 230490 | 247788
All Tracks
Album gain : 0.34 dB
Peak : 0.966156
Track 01
Filename : /XLD/01 - Redeye Skimmer.flac
/XLD/01 - Redeye Skimmer.mp3
Pre-gap length : 00:02:00
Track gain : -3.40 dB
Peak : 0.966156
CRC32 hash (test run) : C8FFC2C8
CRC32 hash : C8FFC2C8
CRC32 hash (skip zero) : 6E93C2A4
AccurateRip signature : D8D761D8
->Track not present in AccurateRip database.
Statistics
Read error : 0
Skipped (treated as error) : 0
Edge jitter error (maybe fixed) : 0
Atom jitter error (maybe fixed) : 0
Drift error (maybe fixed) : 0
Dropped bytes error (maybe fixed) : 0
Duplicated bytes error (maybe fixed) : 0
Inconsistency in error sectors : 0
Track 02
Filename : /XLD/02 - Master of Deception.flac
/XLD/02 - Master of Deception.mp3
Track gain : 3.32 dB
Peak : 0.784271
CRC32 hash (test run) : FCE971EB
CRC32 hash : FCE971EB
CRC32 hash (skip zero) : 678AF993
AccurateRip signature : EDB779F3
->Track not present in AccurateRip database.
Statistics
Read error : 0
Skipped (treated as error) : 0
Edge jitter error (maybe fixed) : 0
Atom jitter error (maybe fixed) : 0
Drift error (maybe fixed) : 0
Dropped bytes error (maybe fixed) : 0
Duplicated bytes error (maybe fixed) : 0
Inconsistency in error sectors : 0
Track 03
Filename : /XLD/03 - Walking Sticks.flac
/XLD/03 - Walking Sticks.mp3
Track gain : 10.17 dB
Peak : 0.501038
CRC32 hash (test run) : BE1F2E6C
CRC32 hash : BE1F2E6C
CRC32 hash (skip zero) : 173B8A46
AccurateRip signature : 3914AB79
->Track not present in AccurateRip database.
Statistics
Read error : 0
Skipped (treated as error) : 0
Edge jitter error (maybe fixed) : 0
Atom jitter error (maybe fixed) : 0
Drift error (maybe fixed) : 0
Dropped bytes error (maybe fixed) : 0
Duplicated bytes error (maybe fixed) : 0
Inconsistency in error sectors : 0
Track 04
Filename : /XLD/04 - Luciol.flac
/XLD/04 - Luciol.mp3
Track gain : 5.59 dB
Peak : 0.463562
CRC32 hash (test run) : DC2FD779
CRC32 hash : DC2FD779
CRC32 hash (skip zero) : D8A6A318
AccurateRip signature : B3C0F7F5
->Track not present in AccurateRip database.
Statistics
Read error : 0
Skipped (treated as error) : 0
Edge jitter error (maybe fixed) : 0
Atom jitter error (maybe fixed) : 0
Drift error (maybe fixed) : 0
Dropped bytes error (maybe fixed) : 0
Duplicated bytes error (maybe fixed) : 0
Inconsistency in error sectors : 0
Track 05
Filename : /XLD/05 - Hymenoptera.flac
/XLD/05 - Hymenoptera.mp3
Pre-gap length : 00:01:28
Track gain : -0.56 dB
Peak : 0.966125
CRC32 hash (test run) : 0A85D064
CRC32 hash : 0A85D064
CRC32 hash (skip zero) : 3A2CE77C
AccurateRip signature : AE6AB74C
->Track not present in AccurateRip database.
Statistics
Read error : 0
Skipped (treated as error) : 0
Edge jitter error (maybe fixed) : 0
Atom jitter error (maybe fixed) : 0
Drift error (maybe fixed) : 0
Dropped bytes error (maybe fixed) : 0
Duplicated bytes error (maybe fixed) : 0
Inconsistency in error sectors : 0
Track 06
Filename : /XLD/06 - Tropical Riodinid.flac
/XLD/06 - Tropical Riodinid.mp3
Track gain : 1.93 dB
Peak : 0.966125
CRC32 hash (test run) : CDEB180C
CRC32 hash : CDEB180C
CRC32 hash (skip zero) : 7C30BF2E
AccurateRip signature : EF75654B
->Track not present in AccurateRip database.
Statistics
Read error : 0
Skipped (treated as error) : 0
Edge jitter error (maybe fixed) : 0
Atom jitter error (maybe fixed) : 0
Drift error (maybe fixed) : 0
Dropped bytes error (maybe fixed) : 0
Duplicated bytes error (maybe fixed) : 0
Inconsistency in error sectors : 0
Track 07
Filename : /XLD/07 - Rusty Millipede.flac
/XLD/07 - Rusty Millipede.mp3
Track gain : 2.36 dB
Peak : 0.677826
CRC32 hash (test run) : C6620954
CRC32 hash : C6620954
CRC32 hash (skip zero) : 07E786EA
AccurateRip signature : 2F6238B9
->Track not present in AccurateRip database.
Statistics
Read error : 0
Skipped (treated as error) : 0
Edge jitter error (maybe fixed) : 0
Atom jitter error (maybe fixed) : 0
Drift error (maybe fixed) : 0
Dropped bytes error (maybe fixed) : 0
Duplicated bytes error (maybe fixed) : 0
Inconsistency in error sectors : 0
Track 08
Filename : /XLD/08 - Hemiptera.flac
/XLD/08 - Hemiptera.mp3
Track gain : 1.52 dB
Peak : 0.966125
CRC32 hash (test run) : 1B74038C
CRC32 hash : 1B74038C
CRC32 hash (skip zero) : D7CED0BA
AccurateRip signature : 0155BA3D
->Track not present in AccurateRip database.
Statistics
Read error : 0
Skipped (treated as error) : 0
Edge jitter error (maybe fixed) : 0
Atom jitter error (maybe fixed) : 0
Drift error (maybe fixed) : 0
Dropped bytes error (maybe fixed) : 0
Duplicated bytes error (maybe fixed) : 0
Inconsistency in error sectors : 0
Track 09
Filename : /XLD/09 - Fatal Weaver.flac
/XLD/09 - Fatal Weaver.mp3
Pre-gap length : 00:02:17
Track gain : 0.20 dB
Peak : 0.966095
CRC32 hash (test run) : B824A7DD
CRC32 hash : B824A7DD
CRC32 hash (skip zero) : 1650252F
AccurateRip signature : 06132884
->Track not present in AccurateRip database.
Statistics
Read error : 0
Skipped (treated as error) : 0
Edge jitter error (maybe fixed) : 0
Atom jitter error (maybe fixed) : 0
Drift error (maybe fixed) : 0
Dropped bytes error (maybe fixed) : 0
Duplicated bytes error (maybe fixed) : 0
Inconsistency in error sectors : 0
Track 10
Filename : /XLD/10 - Blattaria.flac
/XLD/10 - Blattaria.mp3
Pre-gap length : 00:01:29
Track gain : -2.00 dB
Peak : 0.966125
CRC32 hash (test run) : BC133235
CRC32 hash : BC133235
CRC32 hash (skip zero) : A97401D6
AccurateRip signature : A7630F61
->Track not present in AccurateRip database.
Statistics
Read error : 0
Skipped (treated as error) : 0
Edge jitter error (maybe fixed) : 0
Atom jitter error (maybe fixed) : 0
Drift error (maybe fixed) : 0
Dropped bytes error (maybe fixed) : 0
Duplicated bytes error (maybe fixed) : 0
Inconsistency in error sectors : 0
Track 11
Filename : /XLD/11 - Anthromorphic Weevil.flac
/XLD/11 - Anthromorphic Weevil.mp3
Pre-gap length : 00:01:02
Track gain : -2.49 dB
Peak : 0.966156
CRC32 hash (test run) : E4BA9583
CRC32 hash : E4BA9583
CRC32 hash (skip zero) : 5F8F6158
AccurateRip signature : DC32C08E
->Track not present in AccurateRip database.
Statistics
Read error : 0
Skipped (treated as error) : 0
Edge jitter error (maybe fixed) : 0
Atom jitter error (maybe fixed) : 0
Drift error (maybe fixed) : 0
Dropped bytes error (maybe fixed) : 0
Duplicated bytes error (maybe fixed) : 0
Inconsistency in error sectors : 0
Track 12
Filename : /XLD/12 - Ephemeroptera.flac
/XLD/12 - Ephemeroptera.mp3
Track gain : 5.78 dB
Peak : 0.679291
CRC32 hash (test run) : 993571D7
CRC32 hash : 993571D7
CRC32 hash (skip zero) : 1B7062F9
AccurateRip signature : CD95CE90
->Track not present in AccurateRip database.
Statistics
Read error : 0
Skipped (treated as error) : 0
Edge jitter error (maybe fixed) : 0
Atom jitter error (maybe fixed) : 0
Drift error (maybe fixed) : 0
Dropped bytes error (maybe fixed) : 0
Duplicated bytes error (maybe fixed) : 0
Inconsistency in error sectors : 0
No errors occurred
End of status report
 
Содержание индексной карты (.CUE)
TITLE "Class Insecta"
PERFORMER "Ikue Mori"
REM GENRE "Electronic"
REM DATE 2009
REM REPLAYGAIN_ALBUM_GAIN 0.34 dB
REM REPLAYGAIN_ALBUM_PEAK 0.966156
FILE "01 - Redeye Skimmer.wav" WAVE
TRACK 01 AUDIO
TITLE "Redeye Skimmer"
REM REPLAYGAIN_TRACK_GAIN -3.40 dB
REM REPLAYGAIN_TRACK_PEAK 0.966156
INDEX 01 00:00:00
FILE "02 - Master of Deception.wav" WAVE
TRACK 02 AUDIO
TITLE "Master of Deception"
REM REPLAYGAIN_TRACK_GAIN 3.32 dB
REM REPLAYGAIN_TRACK_PEAK 0.784271
INDEX 01 00:00:00
FILE "03 - Walking Sticks.wav" WAVE
TRACK 03 AUDIO
TITLE "Walking Sticks"
REM REPLAYGAIN_TRACK_GAIN 10.17 dB
REM REPLAYGAIN_TRACK_PEAK 0.501038
INDEX 01 00:00:00
FILE "04 - Luciol.wav" WAVE
TRACK 04 AUDIO
TITLE "Luciol"
REM REPLAYGAIN_TRACK_GAIN 5.59 dB
REM REPLAYGAIN_TRACK_PEAK 0.463562
INDEX 01 00:00:00
TRACK 05 AUDIO
TITLE "Hymenoptera"
REM REPLAYGAIN_TRACK_GAIN -0.56 dB
REM REPLAYGAIN_TRACK_PEAK 0.966125
INDEX 00 03:54:64
FILE "05 - Hymenoptera.wav" WAVE
INDEX 01 00:00:00
FILE "06 - Tropical Riodinid.wav" WAVE
TRACK 06 AUDIO
TITLE "Tropical Riodinid"
REM REPLAYGAIN_TRACK_GAIN 1.93 dB
REM REPLAYGAIN_TRACK_PEAK 0.966125
INDEX 01 00:00:00
FILE "07 - Rusty Millipede.wav" WAVE
TRACK 07 AUDIO
TITLE "Rusty Millipede"
REM REPLAYGAIN_TRACK_GAIN 2.36 dB
REM REPLAYGAIN_TRACK_PEAK 0.677826
INDEX 01 00:00:00
FILE "08 - Hemiptera.wav" WAVE
TRACK 08 AUDIO
TITLE "Hemiptera"
REM REPLAYGAIN_TRACK_GAIN 1.52 dB
REM REPLAYGAIN_TRACK_PEAK 0.966125
INDEX 01 00:00:00
TRACK 09 AUDIO
TITLE "Fatal Weaver"
REM REPLAYGAIN_TRACK_GAIN 0.20 dB
REM REPLAYGAIN_TRACK_PEAK 0.966095
INDEX 00 02:47:44
FILE "09 - Fatal Weaver.wav" WAVE
INDEX 01 00:00:00
TRACK 10 AUDIO
TITLE "Blattaria"
REM REPLAYGAIN_TRACK_GAIN -2.00 dB
REM REPLAYGAIN_TRACK_PEAK 0.966125
INDEX 00 06:15:56
FILE "10 - Blattaria.wav" WAVE
INDEX 01 00:00:00
TRACK 11 AUDIO
TITLE "Anthromorphic Weevil"
REM REPLAYGAIN_TRACK_GAIN -2.49 dB
REM REPLAYGAIN_TRACK_PEAK 0.966156
INDEX 00 02:29:26
FILE "11 - Anthromorphic Weevil.wav" WAVE
INDEX 01 00:00:00
FILE "12 - Ephemeroptera.wav" WAVE
TRACK 12 AUDIO
TITLE "Ephemeroptera"
REM REPLAYGAIN_TRACK_GAIN 5.78 dB
REM REPLAYGAIN_TRACK_PEAK 0.679291
INDEX 01 00:00:00
 
Tzadik's Info
One of the pioneers of laptop electronics, Ikue Mori has been breaking new ground on the musical frontier for three decades. From her early days in the landmark No Wave band DNA, to her years as a regular in the downtown improvisation community and more recently as one of the epicenters of the international laptop electronic scene, Ikue has become an underground hero—yet her work is still sorely underappreciated. This newest solo CD features Ikue’s idiosyncratic take on contemporary dance rhythms and electronica. Fascinating ambient textures, detailed improvisations and pulsing hypnotic rhythms clash and combine in this complex and charismatic electronic masterpiece.
 
Об исполнителе / альбоме
Ikue Mori makes a fresh judgment on dance music with her Class Insecta. Her uplifting and unfamiliar shifts of rhythmic emphasis are primarily derived from traditional jungle and house templates. To varying degrees, their voices crisscross as an improv hardy perennial and yet, through the delicacy and rigor characteristic of electronica, they still manage to stay on track, partaking of an experiment in controlled openness.
With "Walking Sticks" Mori bounds through rhythmic tics and mechanisms that slide in and out of sync, awash in slippery, sidereal atmospherics and mucoid textures. Together these elements form a mesh, which tarries with the limits of syncopation, and which moves the body in new ways. Different combinations and juxtapositions arise on a track such as "Luciol". Many of the same elements appear, but their presence is by no means as clear. Under the arm of some byzantine programming, the breathing space, inflections, and natural unevenness of the textural minutiae is not given over to pre-emptive decision, but is laid open in its rough charm. A good deal of the album's allure stems from the fact that Mori's audio sleights of hand and trompe l'oreille extravagances only heighten imagistic speculation and composed expression. These may very well be rootless hybrids, but Mori is quick to make them crucial in their insubstantiality.
This is furthered all the more when the two aforementioned realms shelter each other, when they are haunted by one another, breaking down their respective notions of activity, and gravitating toward a vigorous, communal process of push and shove. During a single piece, they can thus be found both nudging the prevailing thrust a particular way and then later gluing the strands together.
Mori is constantly changing the texture, shape and density of the music. Despite this fact, infectious themes and wild excursions spring from a common creative source. All of it comes as an exploitative rush, an astonished and alert sprawl, inhuman, intimate, and irresistible.
-- Max Schaefer from "The Squid's Ear"
По всем вопросам пишите личное сообщение пользователю M0p94ok.
05:45
223
Нет комментариев. Ваш будет первым!