Поиск

(Post-Bop, Free Jazz) Leroy Jenkins' Sting - Urban Blues - 1984, FLAC (tracks+.cue) lossless

Треклист:
Leroy Jenkins' Sting / Urban Blues
Жанр: Post-Bop, Free Jazz
Страна-производитель диска: Italy
Год издания диска: 1984
Издатель (лейбл): Black Saint
Номер по каталогу: 120083-2
Страна: US
Аудио кодек: FLAC (*.flac)
Тип рипа: tracks+.cue
Битрейт аудио: lossless
Продолжительность: 38:55
Источник (релизер): Demonoid
Наличие сканов в содержимом раздачи: нет
Треклист:
1 Static In The Attic 6:25
2 Looking For The Blues 9:50
3 Come On Home, Baby 2:25
4 Why Can't I Fly 5:31
5 O.W. Fredrick 7:15
6 No Banks River 4:00
7 Through The Ages, Jehova 2:53
 
Лог создания рипа
Exact Audio Copy V0.99 prebeta 5 from 4. May 2009
EAC extraction logfile from 20. November 2010, 12:09
Leroy Jenkins / Urban Blues
Used drive : PLEXTOR DVDR PX-716A Adapter: 4 ID: 0
Read mode : Secure
Utilize accurate stream : Yes
Defeat audio cache : Yes
Make use of C2 pointers : Yes
Read offset correction : 30
Overread into Lead-In and Lead-Out : No
Fill up missing offset samples with silence : Yes
Delete leading and trailing silent blocks : No
Null samples used in CRC calculations : No
Used interface : Native Win32 interface for Win NT & 2000
Gap handling : Not detected, thus appended to previous track
Used output format : User Defined Encoder
Selected bitrate : 768 kBit/s
Quality : High
Add ID3 tag : No
Command line compressor : C:\Program Files\Exact Audio Copy\FLAC\FLAC.EXE
Additional command line options : -6 -V -T "ARTIST=%a" -T "TITLE=%t" -T "ALBUM=%g" -T "DATE=%y" -T "TRACKNUMBER=%n" -T "GENRE=%m" -T "COMMENT=%e" %s -o %d
TOC of the extracted CD
Track | Start | Length | Start sector | End sector
---------------------------------------------------------
1 | 0:00.00 | 6:31.68 | 0 | 29392
2 | 6:31.68 | 9:57.50 | 29393 | 74217
3 | 16:29.43 | 2:30.00 | 74218 | 85467
4 | 18:59.43 | 5:36.00 | 85468 | 110667
5 | 24:35.43 | 7:19.00 | 110668 | 143592
6 | 31:54.43 | 4:05.00 | 143593 | 161967
7 | 35:59.43 | 2:56.00 | 161968 | 175167
Track 1
Filename M:\Ripped\2010\Leroy Jenkins - Urban Blues (1984)\01 - Static In The Attic.wav
Peak level 80.4 %
Track quality 100.0 %
Copy CRC 49299E31
Track not present in AccurateRip database
Copy OK
Track 2
Filename M:\Ripped\2010\Leroy Jenkins - Urban Blues (1984)\02 - Looking For The Blues.wav
Peak level 100.0 %
Track quality 100.0 %
Copy CRC 928A9D26
Track not present in AccurateRip database
Copy OK
Track 3
Filename M:\Ripped\2010\Leroy Jenkins - Urban Blues (1984)\03 - Come On Home Baby.wav
Peak level 82.3 %
Track quality 100.0 %
Copy CRC 7FEB58FE
Track not present in AccurateRip database
Copy OK
Track 4
Filename M:\Ripped\2010\Leroy Jenkins - Urban Blues (1984)\04 - Why Can'T I Fly.wav
Peak level 82.6 %
Track quality 100.0 %
Copy CRC 9BD50FB8
Track not present in AccurateRip database
Copy OK
Track 5
Filename M:\Ripped\2010\Leroy Jenkins - Urban Blues (1984)\05 - O.W. Fredrick.wav
Peak level 98.0 %
Track quality 100.0 %
Copy CRC 0727275A
Track not present in AccurateRip database
Copy OK
Track 6
Filename M:\Ripped\2010\Leroy Jenkins - Urban Blues (1984)\06 - No Banks River.wav
Peak level 86.3 %
Track quality 100.0 %
Copy CRC 0B4A3DDC
Track not present in AccurateRip database
Copy OK
Track 7
Filename M:\Ripped\2010\Leroy Jenkins - Urban Blues (1984)\07 - Through The Ages Jehova.wav
Peak level 100.0 %
Track quality 100.0 %
Copy CRC 0D580005
Track not present in AccurateRip database
Copy OK
None of the tracks are present in the AccurateRip database
No errors occurred
End of status report
 
Содержание индексной карты (.CUE)
REM GENRE Jazz
REM DATE 1984
REM DISCID 59091F07
REM COMMENT "ExactAudioCopy v0.99pb5"
PERFORMER "Leroy Jenkins"
TITLE "Urban Blues"
FILE "01 - Static In The Attic.flac" WAVE
TRACK 01 AUDIO
TITLE "Static In The Attic"
PERFORMER "Leroy Jenkins"
FLAGS DCP
INDEX 01 00:00:00
FILE "02 - Looking For The Blues.flac" WAVE
TRACK 02 AUDIO
TITLE "Looking For The Blues"
PERFORMER "Leroy Jenkins"
FLAGS DCP
INDEX 01 00:00:00
FILE "03 - Come On Home Baby.flac" WAVE
TRACK 03 AUDIO
TITLE "Come On Home Baby"
PERFORMER "Leroy Jenkins"
FLAGS DCP
INDEX 01 00:00:00
FILE "04 - Why Can'T I Fly.flac" WAVE
TRACK 04 AUDIO
TITLE "Why Can'T I Fly"
PERFORMER "Leroy Jenkins"
FLAGS DCP
INDEX 01 00:00:00
FILE "05 - O.W. Fredrick.flac" WAVE
TRACK 05 AUDIO
TITLE "O.W. Fredrick"
PERFORMER "Leroy Jenkins"
FLAGS DCP
INDEX 01 00:00:00
FILE "06 - No Banks River.flac" WAVE
TRACK 06 AUDIO
TITLE "No Banks River"
PERFORMER "Leroy Jenkins"
FLAGS DCP
INDEX 01 00:00:00
FILE "07 - Through The Ages Jehova.flac" WAVE
TRACK 07 AUDIO
TITLE "Through The Ages Jehova"
PERFORMER "Leroy Jenkins"
FLAGS DCP
INDEX 01 00:00:00
 
Лог проверки качества
d:\>d:\aucdtect -d/-m0 d:\zzz\*.wav
auCDtect: CD records authenticity detector, version 0.8.2
Copyright (c) 2004 Oleg Berngardt. All rights reserved.
Copyright (c) 2004 Alexander Djourik. All rights reserved.
------------------------------------------------------------
Processing file: [01. Static In The Attic.wav]
------------------------------------------------------------
This track looks like CDDA with probability 100%
------------------------------------------------------------
Processing file: [02. Looking For The Blues.wav]
------------------------------------------------------------
This track looks like CDDA with probability 100%
------------------------------------------------------------
Processing file: [03. Come On Home Baby.wav]
------------------------------------------------------------
This track looks like CDDA with probability 99%
------------------------------------------------------------
Processing file: [04. Why Can'T I Fly.wav]
------------------------------------------------------------
This track looks like CDDA with probability 100%
------------------------------------------------------------
Processing file: [05. O.W. Fredrick.wav]
------------------------------------------------------------
This track looks like CDDA with probability 99%
------------------------------------------------------------
Processing file: [06. No Banks River.wav]
------------------------------------------------------------
This track looks like CDDA with probability 100%
------------------------------------------------------------
Processing file: [07. Through The Ages Jehova.wav]
------------------------------------------------------------
This track looks like CDDA with probability 99%
------------------------------------------------------------
Final Conclusion:
------------------------------------------------------------
These tracks looks like CDDA with probability 100%
 
Скриншот спектра частот
 
Состав
Bass - Alonzo Gardner
Drums - Kamal Sabir
Guitar - Brandon Ross , James Emery
Violin - Leroy Jenkins
Violin, Vocals - Terry Jenoure
05:46
661
Нет комментариев. Ваш будет первым!