Вы используете незарегистрированную версию компонента "Вкладки"!

Поиск

(Avant-Garde / Modern Creative / Barnyard) Jim Lewis / Andrew Downing / Jean Martin - On a Short Path from Memory to Forgotten - 2010, FLAC (image+.cue) lossless

Треклист:
Jim Lewis / Andrew Downing / Jean Martin - On a Short Path from Memory to Forgotten

Жанр: Avant-Garde / Modern Creative / Barnyard
Страна-производитель диска: Canada
Год издания диска: 2010
Издатель (лейбл): Barnyard BR 0311
Аудио кодек: FLAC (*.flac)
Тип рипа: image+.cue
Битрейт аудио: lossless
Продолжительность: 56:36
Источник (релизер): собственный рип
Наличие сканов в содержимом раздачи: нет
Jim Lewis: trumpet
Andrew Downing: bass
Jean Martin: drums
1. Groove
2. Shine
3. Fifteen
4. On a Short Path
5. Four
6. Six
7. Seven
8. Eight
9. Thirteen
10. Fourteen
Recorded August 13 2008 at Canterbury Music Company except for Groove, Shine and On a Short Path recorded February 27, 2008 at The Farm.
 
Лог создания рипа
Exact Audio Copy V0.99 prebeta 4 from 23. January 2008
EAC extraction logfile from 6. July 2010, 21:17
Jim Lewis / Andrew Downing / Jean Martin / On a Short Path from Memory to Forgotten
Used drive : TSSTcorpCD/DVDW SH-S182M Adapter: 2 ID: 0
Read mode : Secure
Utilize accurate stream : Yes
Defeat audio cache : Yes
Make use of C2 pointers : No
Read offset correction : 6
Overread into Lead-In and Lead-Out : No
Fill up missing offset samples with silence : Yes
Delete leading and trailing silent blocks : No
Null samples used in CRC calculations : Yes
Used interface : Installed external ASPI interface
Used output format : User Defined Encoder
Selected bitrate : 1024 kBit/s
Quality : High
Add ID3 tag : No
Command line compressor : C:\Program Files\Exact Audio Copy\Flac\flac.exe
Additional command line options : -6 -V -T "ARTIST=%a" -T "TITLE=%t" -T "ALBUM=%g" -T "DATE=%y" -T "TRACKNUMBER=%n" -T "GENRE=%m" -T "COMMENT=EAC FLAC -6" %s
TOC of the extracted CD
Track | Start | Length | Start sector | End sector
---------------------------------------------------------
1 | 0:00.00 | 3:15.47 | 0 | 14671
2 | 3:15.47 | 2:19.63 | 14672 | 25159
3 | 5:35.35 | 5:09.11 | 25160 | 48345
4 | 10:44.46 | 4:20.44 | 48346 | 67889
5 | 15:05.15 | 8:04.59 | 67890 | 104248
6 | 23:09.74 | 3:34.74 | 104249 | 120372
7 | 26:44.73 | 6:24.19 | 120373 | 149191
8 | 33:09.17 | 9:09.31 | 149192 | 190397
9 | 42:18.48 | 10:40.33 | 190398 | 238430
10 | 52:59.06 | 3:37.22 | 238431 | 254727
Range status and errors
Selected range
Filename C:\Users\Igor\Music\eac\Lewis Downing Martin - On a Short Path from Memory to Forgotten.wav
Peak level 97.7 %
Range quality 100.0 %
Test CRC 807345BA
Copy CRC 807345BA
Copy OK
No errors occurred
AccurateRip summary
Track 1 not present in database
Track 2 not present in database
Track 3 not present in database
Track 4 not present in database
Track 5 not present in database
Track 6 not present in database
Track 7 not present in database
Track 8 not present in database
Track 9 not present in database
Track 10 not present in database
None of the tracks are present in the AccurateRip database
End of status report
Any questions -> support@pro-jazz.com. По всем вопросам пишите -> support@pro-jazz.com
05:45
184
Нет комментариев. Ваш будет первым!