Вы используете незарегистрированную версию компонента "Вкладки"!

Поиск

(Modern Creative / Free / Avan-Garde) Vinny Golia Quartet - Sfumato - 2005, FLAC (image+.cue), lossless

(Modern Creative / Free / Avan-Garde) Vinny Golia Quartet - Sfumato - 2005, FLAC (image+.cue), lossless
Треклист:
Vinny Golia Quartet - Sfumato
Жанр: Modern Creative / Free / Avan-Garde
Год выпуска диска: 2005
Производитель диска: Portugal (Clean Feed CF036)
Аудио кодек: FLAC
Тип рипа: image+.cue
Битрейт аудио: lossless
Продолжительность: 1:00:55
Vinny Golia soprano and sopranino sax, bass clarinet, Bb clarinet, G and contrabass flutes
Bobby Bradford trumpet
Ken Filiano bass
Alex Cline drums
1. That Was for Albert Phase 3
2. All Together Now
3. CBQ241
4. Monday at Eight, Just Black & White
5. That Was for Albert Phase 5
6. NBT
7. Transition of Power
8. Repitition
9. Small Group Caught in the Reel World

 
Release notes
Here is an item in Vinny Golia’s discography that gives a global sense to his life as an artist. Before being a musician, Golia was a painter. A very particular one, trying to translate to color what he heard in the music he liked most, from Varèse and Messiaen to John Coltrane and Ornette Coleman. In his youth, he used to go to jazz concerts in his native New York to sketch the performers, based in what he saw but also in the music itself. His growing interest in what was happening soundwise made him turn to music definitely, first picking the soprano saxophone and then all the members of the instrumental family invented by Adolph Sax, from the sopranino to the contrabass, an arsenal soon extended to other reeds – all the clarinets, the bassoon and the english horn, but also flutes and ethnic woodwinds from several geographic origins. And he learned to master all those instruments by himself, only taking some basic lessons from his heroes, like Anthony Braxton. The curious thing is that if his painting was inspired by music (he “played” some painting gigs in real time, along with improvising musicians), the music he’s performing and recording for 30 years now is informed by some of the visual arts main characteristics, sounds functioning like colors. “Sfumato”, the new album of his quartet with the legendary trumpeter Bobby Bradford, bassist Ken Filiano and drummer Alex Cline, is a direct reference to that visual background, aluding to the painting technique developed by Leonardo da Vinci to create the perception of depth and volume. The famous Mona Lisa is a consequence of that proceeding, and so is this magnificent record. But take notice: “Sfumato” isn’t the typical “painting-turn-to-music” creation of the experimental sound art field: Golia’s option for the audio medium made him a musician and not a sound sculptor. As such, he deals entirely with the formal elements that make music what it is historically, and even if he has an innovative approach, tonal / melodic phrasing and groovy poly-rhythmic sustenance is something he praises much. That’s why he’s also a composer in the traditional sense, dealing with counterpoint or cadenzas, even when a bit bizarre and broken. With Bradford, Filiano and Cline he can apply something analogous to the sfumato resources to the music they play here, but it’s not brush work what they’re doing. ~ Clean Feed release notes
 
EAC Review
Exact Audio Copy V0.99 prebeta 4 from 23. January 2008
EAC extraction logfile from 13. August 2009, 23:54
Vinny Golia Quartet / Sfumato
Used drive : TSSTcorpCD/DVDW SH-S182M Adapter: 2 ID: 0
Read mode : Secure
Utilize accurate stream : Yes
Defeat audio cache : Yes
Make use of C2 pointers : No
Read offset correction : 6
Overread into Lead-In and Lead-Out : No
Fill up missing offset samples with silence : Yes
Delete leading and trailing silent blocks : No
Null samples used in CRC calculations : Yes
Used interface : Installed external ASPI interface
Used output format : User Defined Encoder
Selected bitrate : 1024 kBit/s
Quality : High
Add ID3 tag : No
Command line compressor : C:\Program Files\Exact Audio Copy\FLAC\FLAC.EXE
Additional command line options : -6 -V -T "ARTIST=%a" -T "TITLE=%t" -T "ALBUM=%g" -T "DATE=%y" -T "TRACKNUMBER=%n" -T "GENRE=%m" -T "COMMENT=%e" %s -o %d
TOC of the extracted CD
Track | Start | Length | Start sector | End sector
---------------------------------------------------------
1 | 0:00.00 | 1:54.72 | 0 | 8621
2 | 1:54.72 | 8:58.70 | 8622 | 49041
3 | 10:53.67 | 7:14.63 | 49042 | 81654
4 | 18:08.55 | 7:39.60 | 81655 | 116139
5 | 25:48.40 | 3:39.03 | 116140 | 132567
6 | 29:27.43 | 6:20.25 | 132568 | 161092
7 | 35:47.68 | 10:17.35 | 161093 | 207402
8 | 46:05.28 | 6:01.69 | 207403 | 234546
9 | 52:07.22 | 8:47.48 | 234547 | 274119
Range status and errors
Selected range
Filename C:\Documents and Settings\Igor\My Documents\My Music\eac\Vinny Golia Quartet - Sfumato.wav
Peak level 98.8 %
Range quality 100.0 %
Test CRC 737881EB
Copy CRC 737881EB
Copy OK
No errors occurred
AccurateRip summary
Track 1 not present in database
Track 2 not present in database
Track 3 not present in database
Track 4 not present in database
Track 5 not present in database
Track 6 not present in database
Track 7 not present in database
Track 8 not present in database
Track 9 not present in database
None of the tracks are present in the AccurateRip database
End of status report
По всем вопросам пишите личное сообщение пользователю M0p94ok.
15:01
180
Нет комментариев. Ваш будет первым!