Вы используете незарегистрированную версию компонента "Вкладки"!

Поиск

(Jazz,Avant-Garde,Free Jazz) Archie Shepp - The Way Ahead - 1998, FLAC (image+.cue), lossless

Треклист:
Archie Shepp - The Way Ahead
Жанр: Jazz,Avant-Garde,Free Jazz.
Год выпуска диска: 1998
Производитель диска: Impulse!
Аудио кодек: FLAC
Тип рипа: image+.cue
Битрейт аудио: lossless
Продолжительность: 60:22
Трэклист:
1 Damn If I Know (The Stroller)
2 Frankenstein
3 Fiesta
4 Sophisticated Lady
5 New Africa - (bonus track)
6 Bakai - (bonus track)
Personnel:
Archie Shepp (tenor saxophone);
Charles Davis (baritone saxophone);
Jimmy Owens (trumpet);
Grachan Moncur III (trombone);
Walter Davis Jr., Dave Burrell (piano);
Ron Carter, Walter Booker (bass);
Beaver Harris, Roy Haynes (drums).
Recording Data :
Jan 29, 1968
Feb 26, 1969
 
About
Review by Thom Jurek
The Way Ahead was a turning point for Archie Shepp. For starters, he had looked all over the jazz/improv arena for the proper combination of players — without a piano. One can speculate that this was because he cut his first teeth with pianist Cecil Taylor and that would perhaps ruin anybody for life. Recorded in 1969, The Way Ahead featured Ron Carter on bass, Grachan Moncur III's trombone, Jimmy Owens' trumpet, and drums by either Beaver Harris or Roy Haynes, with Walter Davis, Jr. on piano. The set is a glorious stretch of the old and new, with deep blues, gospel, and plenty of guttersnipe swing in the mix. From the post-bop blues opener "Damn If I Know (The Stroller)," the set takes its Ellington-Webster cue and goes looking for the other side of Mingus. Shepp's solo is brittle, choppy, honky, and glorious against a set of changes gracefully employed by Moncur and Owens. Harris' stuttering, skittering rhythm may keep it anchored in the blues, but holds the line for anything else to happen. Likewise, the modern edge of things evidenced by Moncur's "Frankenstein" (first recorded with Jackie McLean's group in 1963) turns up the heat a bit more. Shepp's take is wholly different, accenting pedal points and microharmonics in the breaks. On "Sophisticated Lady" and "Fiesta," Haynes fills the drum chair and cuts his manic swinging time through the arrangements, lending them more of an elegant flair than perhaps they deserve here, though they also dig deeper emotionally than one would expect. The final two tracks on the CD are sessions left over from February 1969 that replace Davis with Dave Burrell and Carter with Walter Booker, and add Charles Davis on baritone with Harris on skins. They sound apart from these sessions, though; there is a fury and darkness in them that sucks a bit of the joyous party feel from the original album.
 
EAC Log
Exact Audio Copy V0.99 prebeta 4 from 23. January 2008
Отчёт EAC об извлечении, выполненном 2. июля 2009, 13:16
Archie Shepp / The Way Ahead
Дисковод: LITE-ON DVDRW LH-20A1H Adapter: 0 ID: 0
Режим чтения : Достоверность
Использование точного потока : Да
Отключение кэша аудио : Да
Использование указателей C2 : Нет
Коррекция смещения при чтении : 6
Способность читать области Lead-in и Lead-out : Нет
Заполнение пропущенных сэмплов тишиной : Да
Удаление блоков с тишиной в начале и конце : Нет
При вычислениях CRC использовались нулевые сэмплы : Да
Интерфейс : Установленный внешний ASPI-интерфейс
Выходной формат : Пользовательский кодировщик
Выбранный битрейт : 768 kBit/s
Качество : Высокий
Добавление ID3-тэга : Нет
Утилита сжатия : C:\Program Files\Exact Audio Copy\FLAC\FLAC.EXE
Дополнительные параметры : -6 -V -T "ARTIST=%a" -T "TITLE=%t" -T "ALBUM=%g" -T "DATE=%y" -T "TRACKNUMBER=%n" -T "GENRE=%m" -T "COMMENT=%e" %s -o %d
TOC извлечённого CD
Трек | Старт | Длительность | Начальный сектор | Конечный сектор
---------------------------------------------------------------------
1 | 0:00.00 | 6:19.27 | 0 | 28451
2 | 6:19.27 | 13:53.05 | 28452 | 90931
3 | 20:12.32 | 9:57.30 | 90932 | 135736
4 | 30:09.62 | 7:11.20 | 135737 | 168081
5 | 37:21.07 | 12:57.03 | 168082 | 226359
6 | 50:18.10 | 10:04.65 | 226360 | 271724
Характеристики диапазона извлечения и сообщения об ошибках
Выбранный диапазон
Имя файла G:\RAB\Archie Shepp-The Way Ahead\Archie Shepp - The Way Ahead.wav
Пиковый уровень 93.7 %
Качество диапазона 100.0 %
CRC теста 35B61BFE
CRC копии 35B61BFE
Копирование... OK
Ошибок не произошло
AccurateRip: сводка
Трек 1 нет в базе данных
Трек 2 нет в базе данных
Трек 3 нет в базе данных
Трек 4 точное извлечение (доверие 2) [89B89847]
Трек 5 нет в базе данных
Трек 6 нет в базе данных
1 трек(и) скопированы точно
5 трек(и) не содержатся в базе AccurateRip
Некоторые треки не прошли проверку на точность
Конец отчёта
 
Tau Analyzer


 
disk
По всем вопросам пишите личное сообщение пользователю M0p94ok.
15:02
258
Нет комментариев. Ваш будет первым!