Вы используете незарегистрированную версию компонента "Вкладки"!

Поиск

(Modern Creative / Experimental / Norway) 1982 (Nils Okland, Sigbjorn Apeland, Oyvind Skarbo) - Pintura - 2011 [Hubro CD2510], FLAC (tracks+.cue), lossless

(Modern Creative / Experimental / Norway) 1982 (Nils Okland, Sigbjorn Apeland, Oyvind Skarbo) - Pintura - 2011 [Hubro CD2510], FLAC (tracks+.cue), lossless
Издатель (лейбл):
Треклист:
1982 - Pintura
Жанр: Modern Creative / Experimental
Страна-производитель диска: Norway
Год издания диска: 2011
Издатель (лейбл): Hubro
Номер по каталогу: HUBRO CD2510
Аудиокодек: FLAC (*.flac)
Тип рипа: tracks+.cue
Битрейт аудио: lossless
Продолжительность: 00:34:51
Источник (релизер): what.cd / спасибо azurehum
Наличие сканов в содержимом раздачи: нет
Треклист:
1. 01:53 (01:52)
2. 03:32 (03:32)
3. 10:38 (10:37)
4. 02:18 (02:22)
5. 06:02 (06:04)
6. 02:53 (02:54)
7. 03:17 (03:19)
8. 03:52 (03:52)
Доп. информация:
Musicians:
Nils Økland - hardingfele, violin
Sigbjørn Apeland - harmonium, organ (Wurlitzer)
Øyvind Skarbø - drums
Recorded at Grieghallen Studio, Bergen, Norway, Dec 7th 2010
© 2011 Hubro
1982 Official Site
1982 - Pintura hubromusic.com
1982 - Pintura allaboutjazz.com
1982 - Pintura challengerecords.com
1982 - Pintura discogs.com
... небольшое видео 1982 - Recording of Pintura vimeo.com
 
... text ...
Wir lauschen einer "Supergroup of modern, improvised chamber music". "Pintura" bietet herrlich schräg angesetzte Improvisationen im strengen Kämmerchen, die zwischen Folk und Minimal, zwischen freier Improvisation und durchdachten Arrangements oszillieren. Das klingt manchmal nach einer sphärischen Reminiszenz an die frühbarocke Klassik... Stets aber klingt es nach unterkühlter (na ja, eben norwegischer) Kammerkunst vom Feinsten. Ein verschrobenes, leicht an den Nerven kratzendes, dennoch ungemein wohlgefälliges Meisterstück. ~ Skug (DE)
 
... photo ...
 
... album info ...
This is the second album by Norwegian trio 1982. On Pintura, they lift their interaction and experimentation to a new level. 1982 must be designated as a super-group within the genre of modern, improvised chamber music. The group's instrumentation is unusual. As far as anyone can tell, there is no other ensemble playing improvised music using the combination of harmonium, drums and Hardanger fiddle. This gives 1982 a distinctive sound, but in a purely musical sense, too, the group follows their own path. Fiddler Nils Øklandhas a background as a folk musician, and is renowned internationally for his innovative playing style. His solo albums on the ECM and Rune Grammofon labels have received glowing reviews. Økland was a member of the Christian Wallumrød Ensemble for several years. Sigbjørn Apeland plays church organ and harmonium, and holds Norway's only doctorate in ethnomusicology. He is known for operating at the point where folk music, church music and improvisational music intersect. While studying organ, he became involved in learning from and playing free jazz with the legendary British drummer John Stevens. Sigbjørn Apeland and Nils Økland have also collaborated as a duo for decades, releasing a critically-acclaimed record on ECM inspired by Norwegian violinist Ole Bull and his home at Lysøen. Drummer Øyvind Skarbø has studied with Terje Isungset. He plays with BMX, Kresten Osgood, Per Jørgensen and the Icelandic guitarist Hilmar Jensson, in addition to working with a solo project under the name ofDIE, Allroundhandwerker!. Skarbø found the inspiration for the name of the album when he visited the Joan Miró museum in Barcelona. "When you see the picture with the same name, the first thing that grabs your attention is a rough, monochromatic figure, which must have been painted with a broad brush. Then, when you get closer, you notice that the background, in contrast, is very detailed and nuanced. I don't know if this can function as a description of our music, but I did think it was significant." The album was recorded at Grieg Hall studio in Bergen with technician Davide Bertolini.
 
Лог создания рипа
Exact Audio Copy V1.0 beta 2 from 29. April 2011
EAC extraction logfile from 14. December 2011, 21:43
1982 / Pintura
Used drive : HL-DT-STDVDRAM GP40LB10 Adapter: 1 ID: 0
Read mode : Secure
Utilize accurate stream : Yes
Defeat audio cache : Yes
Make use of C2 pointers : No
Read offset correction : 6
Overread into Lead-In and Lead-Out : No
Fill up missing offset samples with silence : Yes
Delete leading and trailing silent blocks : No
Null samples used in CRC calculations : Yes
Used interface : Native Win32 interface for Win NT & 2000
Gap handling : Appended to previous track
Used output format : User Defined Encoder
Selected bitrate : 768 kBit/s
Quality : High
Add ID3 tag : No
Command line compressor : C:\Program Files (x86)\Exact Audio Copy\FLAC\FLAC.EXE
Additional command line options : -6 -V -T "ARTIST=%artist%" -T "TITLE=%title%" -T "ALBUM=%albumtitle%" -T "DATE=%year%" -T "TRACKNUMBER=%tracknr%" -T "GENRE=%genre%" -T "COMMENT=%comment%" -T "BAND=%albuminterpret%" -T "COMPOSER=%composer%" %haslyrics%--ta
TOC of the extracted CD
Track | Start | Length | Start sector | End sector
---------------------------------------------------------
1 | 0:00.00 | 1:52.52 | 0 | 8451
2 | 1:52.52 | 3:32.13 | 8452 | 24364
3 | 5:24.65 | 10:37.56 | 24365 | 72195
4 | 16:02.46 | 2:22.33 | 72196 | 82878
5 | 18:25.04 | 6:04.69 | 82879 | 110247
6 | 24:29.73 | 2:54.08 | 110248 | 123305
7 | 27:24.06 | 3:19.06 | 123306 | 138236
8 | 30:43.12 | 3:52.18 | 138237 | 155654
Track 1
Filename I:\Music2\1982 - Pintura [2011] FLAC\01 01-53.wav
Pre-gap length 0:00:02.00
Peak level 100.0 %
Extraction speed 2.3 X
Track quality 100.0 %
Test CRC 6E68011D
Copy CRC 6E68011D
Track not present in AccurateRip database
Copy OK
Track 2
Filename I:\Music2\1982 - Pintura [2011] FLAC\02 03-32.wav
Peak level 97.1 %
Extraction speed 2.3 X
Track quality 99.9 %
Test CRC 0644FD8E
Copy CRC 0644FD8E
Track not present in AccurateRip database
Copy OK
Track 3
Filename I:\Music2\1982 - Pintura [2011] FLAC\03 10-38.wav
Peak level 97.1 %
Extraction speed 3.4 X
Track quality 99.9 %
Test CRC 43914F34
Copy CRC 43914F34
Track not present in AccurateRip database
Copy OK
Track 4
Filename I:\Music2\1982 - Pintura [2011] FLAC\04 02-18.wav
Peak level 97.2 %
Extraction speed 2.1 X
Track quality 99.9 %
Test CRC 8BBCB902
Copy CRC 8BBCB902
Track not present in AccurateRip database
Copy OK
Track 5
Filename I:\Music2\1982 - Pintura [2011] FLAC\05 06-02.wav
Pre-gap length 0:00:05.00
Peak level 81.5 %
Extraction speed 1.8 X
Track quality 100.0 %
Test CRC 8926B9B1
Copy CRC 8926B9B1
Track not present in AccurateRip database
Copy OK
Track 6
Filename I:\Music2\1982 - Pintura [2011] FLAC\06 02-53.wav
Pre-gap length 0:00:03.00
Peak level 90.0 %
Extraction speed 1.7 X
Track quality 100.0 %
Test CRC 0C83450C
Copy CRC 0C83450C
Track not present in AccurateRip database
Copy OK
Track 7
Filename I:\Music2\1982 - Pintura [2011] FLAC\07 03-17.wav
Pre-gap length 0:00:01.00
Peak level 100.0 %
Extraction speed 1.8 X
Track quality 100.0 %
Test CRC 0C5B014F
Copy CRC 0C5B014F
Track not present in AccurateRip database
Copy OK
Track 8
Filename I:\Music2\1982 - Pintura [2011] FLAC\08 03-52.wav
Pre-gap length 0:00:01.61
Peak level 76.3 %
Extraction speed 1.9 X
Track quality 100.0 %
Test CRC 0BEEDC4E
Copy CRC 0BEEDC4E
Track not present in AccurateRip database
Copy OK
None of the tracks are present in the AccurateRip database
No errors occurred
End of status report
==== Log checksum C50CC68D5C7662328FECAF95E7C788B0EF90CB6B619415D58B5530B1B795AC4B ====
 
Содержание индексной карты (.CUE)
REM DATE 2011
REM DISCID 5F081B08
REM COMMENT "ExactAudioCopy v1.0b2"
PERFORMER "1982"
TITLE "Pintura"
FILE "01 01-53.wav" WAVE
TRACK 01 AUDIO
TITLE "01:53"
PERFORMER "1982"
INDEX 01 00:00:00
FILE "02 03-32.wav" WAVE
TRACK 02 AUDIO
TITLE "03:32"
PERFORMER "1982"
INDEX 01 00:00:00
FILE "03 10-38.wav" WAVE
TRACK 03 AUDIO
TITLE "10:38"
PERFORMER "1982"
INDEX 01 00:00:00
FILE "04 02-18.wav" WAVE
TRACK 04 AUDIO
TITLE "02:18"
PERFORMER "1982"
INDEX 01 00:00:00
TRACK 05 AUDIO
TITLE "06:02"
PERFORMER "1982"
INDEX 00 02:17:33
FILE "05 06-02.wav" WAVE
INDEX 01 00:00:00
TRACK 06 AUDIO
TITLE "02:53"
PERFORMER "1982"
INDEX 00 06:01:69
FILE "06 02-53.wav" WAVE
INDEX 01 00:00:00
TRACK 07 AUDIO
TITLE "03:17"
PERFORMER "1982"
INDEX 00 02:53:08
FILE "07 03-17.wav" WAVE
INDEX 01 00:00:00
TRACK 08 AUDIO
TITLE "03:52"
PERFORMER "1982"
INDEX 00 03:17:20
FILE "08 03-52.wav" WAVE
INDEX 01 00:00:00
Any questions -> support@pro-jazz.com. По всем вопросам пишите -> support@pro-jazz.com
22:00
191
Нет комментариев. Ваш будет первым!