Вы используете незарегистрированную версию компонента "Вкладки"!

Поиск

(Modern Creative) Greg Caffrey Circle - Child's Play - 2000, FLAC (tracks+.cue), lossless

(Modern Creative) Greg Caffrey Circle - Child's Play - 2000, FLAC (tracks+.cue), lossless
Треклист:
Greg Caffrey Circle / Child's Play
Жанр: Modern Creative
Год издания диска: 2000
Издатель (лейбл): Cactus Records
Номер по каталогу: RD9:00CD1
Страна: Ireland
Аудиокодек: FLAC (*.flac)
Тип рипа: tracks+.cue
Битрейт аудио: lossless
Продолжительность: 36:17
Источник (релизер): CD
Наличие сканов в содержимом раздачи: да
Треклист:
1. Musical Chairs
2. Magic Tricks
3. Blind Man's Buff
4. Skipping
5. Follow The Leader
6. Bouncy Castle
7. Beddy Byes
 
Лог создания рипа
Exact Audio Copy V1.0 beta 2 from 29. April 2011
EAC extraction logfile from 13. February 2012, 12:15
Greg Caffrey Circle / Child's Play
Used drive : Optiarc DVD RW AD-7240S Adapter: 2 ID: 0
Read mode : Secure
Utilize accurate stream : Yes
Defeat audio cache : Yes
Make use of C2 pointers : No
Read offset correction : 48
Overread into Lead-In and Lead-Out : No
Fill up missing offset samples with silence : Yes
Delete leading and trailing silent blocks : No
Null samples used in CRC calculations : Yes
Used interface : Installed external ASPI interface
Gap handling : Appended to previous track
Used output format : User Defined Encoder
Selected bitrate : 128 kBit/s
Quality : High
Add ID3 tag : No
Command line compressor : C:\Program Files\Exact Audio Copy\FLAC\FLAC.EXE
Additional command line options : -8 -V -T "ARTIST=%artist%" -T "TITLE=%title%" -T "ALBUM=%albumtitle%" -T "DATE=%year%" -T "TRACKNUMBER=%tracknr%" -T "GENRE=%genre%" -T "COMMENT=%comment%" -T "BAND=%albuminterpret%" -T "COMPOSER=%composer%" %haslyrics%--ta
TOC of the extracted CD
Track | Start | Length | Start sector | End sector
---------------------------------------------------------
1 | 0:00.00 | 9:21.72 | 0 | 42146
2 | 9:21.72 | 1:30.70 | 42147 | 48966
3 | 10:52.67 | 3:30.56 | 48967 | 64772
4 | 14:23.48 | 6:51.48 | 64773 | 95645
5 | 21:15.21 | 5:03.21 | 95646 | 118391
6 | 26:18.42 | 4:40.67 | 118392 | 139458
7 | 30:59.34 | 5:17.70 | 139459 | 163303
Track 1
Filename C:\ukho\Greg Caffrey Circle (1999) - Child's Play\01 Musical Chairs.wav
Pre-gap length 0:00:02.00
Peak level 99.3 %
Extraction speed 2.7 X
Track quality 100.0 %
Test CRC A610FF6F
Copy CRC A610FF6F
Track not present in AccurateRip database
Copy OK
Track 2
Filename C:\ukho\Greg Caffrey Circle (1999) - Child's Play\02 Magic Tricks.wav
Pre-gap length 0:00:01.45
Peak level 98.6 %
Extraction speed 1.7 X
Track quality 99.8 %
Test CRC 8652B190
Copy CRC 8652B190
Track not present in AccurateRip database
Copy OK
Track 3
Filename C:\ukho\Greg Caffrey Circle (1999) - Child's Play\03 Blind Man's Buff.wav
Pre-gap length 0:00:01.45
Peak level 99.2 %
Extraction speed 2.8 X
Track quality 100.0 %
Test CRC E2D1299A
Copy CRC E2D1299A
Track not present in AccurateRip database
Copy OK
Track 4
Filename C:\ukho\Greg Caffrey Circle (1999) - Child's Play\04 Skipping.wav
Pre-gap length 0:00:01.45
Peak level 99.2 %
Extraction speed 3.4 X
Track quality 100.0 %
Test CRC 8F968E2B
Copy CRC 8F968E2B
Track not present in AccurateRip database
Copy OK
Track 5
Filename C:\ukho\Greg Caffrey Circle (1999) - Child's Play\05 Follow The Leader.wav
Pre-gap length 0:00:01.45
Peak level 98.2 %
Extraction speed 3.6 X
Track quality 100.0 %
Test CRC 937352CC
Copy CRC 937352CC
Track not present in AccurateRip database
Copy OK
Track 6
Filename C:\ukho\Greg Caffrey Circle (1999) - Child's Play\06 Bouncy Castle.wav
Pre-gap length 0:00:01.45
Peak level 98.5 %
Extraction speed 3.7 X
Track quality 100.0 %
Test CRC DA41BBAA
Copy CRC DA41BBAA
Track not present in AccurateRip database
Copy OK
Track 7
Filename C:\ukho\Greg Caffrey Circle (1999) - Child's Play\07 Beddy Byes.wav
Pre-gap length 0:00:01.45
Peak level 80.5 %
Extraction speed 4.0 X
Track quality 100.0 %
Test CRC 3246F13F
Copy CRC 3246F13F
Track not present in AccurateRip database
Copy OK
None of the tracks are present in the AccurateRip database
No errors occurred
End of status report
==== Log checksum 76441B969A9785D45BDF6F1188568F74AFA8E041D5EE6FBA2CF3433623D6AA0E ====
 
Содержание индексной карты (.CUE)
REM GENRE Jazz
REM DATE 1999
REM DISCID 61088107
REM COMMENT "ExactAudioCopy v1.0b2"
PERFORMER "Greg Caffrey Circle"
TITLE "Child's Play"
FILE "01 Musical Chairs.wav" WAVE
TRACK 01 AUDIO
TITLE "Musical Chairs"
PERFORMER "Greg Caffrey Circle"
INDEX 01 00:00:00
TRACK 02 AUDIO
TITLE "Magic Tricks"
PERFORMER "Greg Caffrey Circle"
INDEX 00 09:20:27
FILE "02 Magic Tricks.wav" WAVE
INDEX 01 00:00:00
TRACK 03 AUDIO
TITLE "Blind Man's Buff"
PERFORMER "Greg Caffrey Circle"
INDEX 00 01:29:25
FILE "03 Blind Man's Buff.wav" WAVE
INDEX 01 00:00:00
TRACK 04 AUDIO
TITLE "Skipping"
PERFORMER "Greg Caffrey Circle"
INDEX 00 03:29:11
FILE "04 Skipping.wav" WAVE
INDEX 01 00:00:00
TRACK 05 AUDIO
TITLE "Follow The Leader"
PERFORMER "Greg Caffrey Circle"
INDEX 00 06:50:03
FILE "05 Follow The Leader.wav" WAVE
INDEX 01 00:00:00
TRACK 06 AUDIO
TITLE "Bouncy Castle"
PERFORMER "Greg Caffrey Circle"
INDEX 00 05:01:51
FILE "06 Bouncy Castle.wav" WAVE
INDEX 01 00:00:00
TRACK 07 AUDIO
TITLE "Beddy Byes"
PERFORMER "Greg Caffrey Circle"
INDEX 00 04:39:22
FILE "07 Beddy Byes.wav" WAVE
INDEX 01 00:00:00
 
Доп. информация
Recorded at Green Dolphin Studios on 25 June 2000
 
Об исполнителе (группе)
The Irish composer Greg Caffrey read music at Queen’s University where he studied composition under Piers Hellawell and James Clarke. He was awarded a B.Mus. in 1995 and completed a PhD in 2002. He has won a number of awards and scholarships that include the Hamilton Harty Scholarship, May Turtle Award, an award from the Harrison Foundation and he was a finalist in the ISME-IVME 2nd International Composition Contest in Brussels. As a performer he has worked in many of the countries leading ensembles, including the Irish Jazz Orchestra, as well as working in theatre orchestras and in groups giving TV and radio broadcasts.
His compositions have been performed in Britain, Ireland, France, Germany, Belgium, Sweden, Czech Republic, Estonia, U.S. and Brazil receiving critical acclaim and increasingly reflecting an eclecticism informed by his broad musical background and enthusiastic teaching activities. The formation of his own ensemble, “Greg Caffrey Circle”, in 2000, allowed him to release an album of his own compositions entitled “Child’s Play”. His music has been recorded on the Meridian, Naturalstudio, Cactus and CMC record labels.
Greg has received commissions from many performers and ensembles as well as from BBC Radio 3 and the Irish national broadcasting station RTE and has had music performed by The Ulster Orchestra, Ensemble Bash, Craig Ogden, Gerard McChrystal, The Smith Quartet, Elizabeth Cooney, Izumi Kimura, Brian Keenan, Patrick Zeoli, Trio Collage, Aisling Agnew and Matthew McAlister and the Ireland Quartet, to name a few. His most recent works include a commission from the British contemporary music group SCAW.
Greg lecturers in Music and Music Technology at SERC and recently spent a period composing at the prestigious Cite Internationale des Arts in Paris where he resided for 3 months. He has been appointed composer in residence with the London based orchestra EMFEB and is a registered artist with Creative Youth Partnerships. Greg is represented by the Contemporary Music Centre, Dublin and is a member of the Association of Irish Composers.
 
Об альбоме (сборнике)
All the music on this recording is based on the theme of children at play. The music is partly written and partly improvised and all of it is inspired by and dedicated to my two lovely daughters Laura and Paula. The music draws strongly from the games or activities mentioned in the titles. The opening piece, Musical Chairs, for example borrows the form of the children's party game, with an ordered circulation of the chairs depicted by an 11/8 ostinato followed by a scramble for seats each time the music stops. Magic Tricks attempts to "conjure" a feeling of a magican doing all the things that children's party magicians are expected to do - pulling long handkerchiefs out of deceivingly small pockets - pulling playing cards from seemingly nowhere etc. Blind Man's Buff seeks to give an impression of discrentation achieved through interplay between drums and the other instruments. In Skipping a rotating rope can be heard hitting the ground twice per bar (drums) while the guitar plays in relentless semi-quavers generating a feeling of constant motion. Follow The Leader uses the age-old compositional practice of one melodic strand following another; first the guitar, then the drums and eventually the clarinet. Bouncy Castle utilises "bouncing" sounds from the drum kit as well as an angular "monk inspired melody" to create a feeling of children playing on a large inflatable castle. Finally, Beddy Byes winds the action down with a dreamy melody reminiscent of a lullaby. ~ greg caffrey, gregworld.co.uk
 
Состав
Greg Caffrey - guitar
Richard Mawhinney - clarinet
Andrew Lavery - drums
Any questions -> support@pro-jazz.com. По всем вопросам пишите -> support@pro-jazz.com
22:01
162
Нет комментариев. Ваш будет первым!