Вы используете незарегистрированную версию компонента "Вкладки"!

Поиск

(Free Jazz, Free Improvisation) Sabir Mateen Quintet - Secrets Of When - 2001, FLAC (image+.cue), lossless

(Free Jazz, Free Improvisation) Sabir Mateen Quintet - Secrets Of When - 2001, FLAC (image+.cue), lossless
Треклист:
Sabir Mateen Quintet / Secrets Of When
Жанр: Free Jazz, Free Improvisation
Страна-производитель диска: France
Год издания диска: 2001
Издатель (лейбл): Bleu Regard
Номер по каталогу: CT 1961
Аудиокодек: FLAC (*.flac)
Тип рипа: image+.cue
Битрейт аудио: lossless
Продолжительность: 64:49
Источник (релизер): cd
Наличие сканов в содержимом раздачи: нет
Треклист:
1 Shattered Chamber 17:09
2 Our Community 5:04
3 Secrets Of When 12:53
4 Inner Conversations 12:42
5 SouthEast Winds At 12 11:13
6 Prayers 5:19
 
Лог создания рипа
Exact Audio Copy V1.0 beta 2 from 29. April 2011
EAC extraction logfile from 15. February 2012, 10:06
Sabir Mateen Quintet / Secrets Of When
Used drive : Optiarc DVD RW AD-7170A Adapter: 0 ID: 0
Read mode : Secure
Utilize accurate stream : Yes
Defeat audio cache : Yes
Make use of C2 pointers : No
Read offset correction : 48
Overread into Lead-In and Lead-Out : No
Fill up missing offset samples with silence : Yes
Delete leading and trailing silent blocks : No
Null samples used in CRC calculations : Yes
Used interface : Native Win32 interface for Win NT & 2000
Used output format : User Defined Encoder
Selected bitrate : 320 kBit/s
Quality : High
Add ID3 tag : No
Command line compressor : C:\Program Files\Exact Audio Copy\Flac\flac.exe
Additional command line options : -V -8 -T "Date=%year%" -T "Genre=%genre%" %source%
TOC of the extracted CD
Track | Start | Length | Start sector | End sector
---------------------------------------------------------
1 | 0:00.32 | 17:14.38 | 32 | 77619
2 | 17:14.70 | 5:09.70 | 77620 | 100864
3 | 22:24.65 | 12:58.60 | 100865 | 159274
4 | 35:23.50 | 12:48.00 | 159275 | 216874
5 | 48:11.50 | 11:18.02 | 216875 | 267726
6 | 59:29.52 | 5:20.48 | 267727 | 291774
Range status and errors
Selected range
Filename C:\EAC\Downloads\Sabir Mateen Quintet - Secrets Of When.wav
Peak level 98.8 %
Extraction speed 2.0 X
Range quality 99.9 %
Test CRC DDC34EB5
Copy CRC DDC34EB5
Copy OK
No errors occurred
AccurateRip summary
Track 1 not present in database
Track 2 not present in database
Track 3 not present in database
Track 4 not present in database
Track 5 not present in database
Track 6 not present in database
None of the tracks are present in the AccurateRip database
End of status report
==== Log checksum A4EBC447A1E29B2751775285E480290EA6F2D30F52C16BC98490F2C42D767AC0 ====
 
Содержание индексной карты (.CUE)
REM GENRE Jazz
REM DATE 2001
REM DISCID 4A0F3206
REM COMMENT "ExactAudioCopy v1.0b2"
PERFORMER "Sabir Mateen Quintet"
TITLE "Secrets Of When"
FILE "Sabir Mateen Quintet - Secrets Of When.flac" WAVE
TRACK 01 AUDIO
TITLE "Shattered Chamber"
PERFORMER "Sabir Mateen Quintet"
INDEX 00 00:00:00
INDEX 01 00:00:32
TRACK 02 AUDIO
TITLE "Our Community"
PERFORMER "Sabir Mateen Quintet"
INDEX 00 17:10:42
INDEX 01 17:14:70
TRACK 03 AUDIO
TITLE "Secrets Of When"
PERFORMER "Sabir Mateen Quintet"
INDEX 00 22:19:15
INDEX 01 22:24:65
TRACK 04 AUDIO
TITLE "Inner Conversations"
PERFORMER "Sabir Mateen Quintet"
INDEX 00 35:18:67
INDEX 01 35:23:50
TRACK 05 AUDIO
TITLE "SouthEast Winds At 12"
PERFORMER "Sabir Mateen Quintet"
INDEX 00 48:06:02
INDEX 01 48:11:50
TRACK 06 AUDIO
TITLE "Prayers"
PERFORMER "Sabir Mateen Quintet"
INDEX 00 59:25:07
INDEX 01 59:29:52
Доп. информация: Recorded on May 31, 2001 in New York at Seltzer Sound.
Mastered at L'Autre Studio.
 
Состав
Double Bass, Cello, Voice – Jane Wang
Drums, Percussion, Tabla, Talking Drum, Voice – Ravish Momin
Piano, Voice – Naoko Ono
Saxophone [Alto, Tenor], Clarinet, Clarinet [Alto], Flute, Voice – Sabir Mateen
Trumpet, Voice – Raphe Malik
Any questions -> support@pro-jazz.com. По всем вопросам пишите -> support@pro-jazz.com
21:59
205
Нет комментариев. Ваш будет первым!