Поиск

(Modern Creative / Ethnic / Electronic Pop / Tzadik) Mazal - Axerico en Selanik - 2011, FLAC (tracks+.cue), lossless

(Modern Creative / Ethnic / Electronic Pop / Tzadik) Mazal - Axerico en Selanik - 2011, FLAC (tracks+.cue), lossless
Треклист:
Mazal / Axerico en Selanik
Жанр: Modern Creative / Ethnic / Electronic Pop / Tzadik
Страна-производитель диска: USA
Год издания: 2011
Издатель (лейбл): Tzadik
Номер по каталогу: 8160
Страна: France
Аудиокодек: FLAC (*.flac)
Тип рипа: tracks+.cue
Битрейт аудио: lossless
Продолжительность: 50:17
Наличие сканов в содержимом раздачи: нет
Треклист:
1. Zimbolucha
2. El Rey
3. Dos amantes
4. El padre
5. Axerico
6. Oy Kalelumbror
7. Dame la mano
8. La hermana
9. Por Qué lloraj
10. A la una
All glory to denti (what.cd)
 
Лог создания рипа
Exact Audio Copy V1.0 beta 1 from 15. November 2010
EAC extraction logfile from 19. April 2011, 18:08
Mazal / Axerico en Selanik
Used drive : TSSTcorpCD/DVDW SH-S182D Adapter: 1 ID: 0
Read mode : Secure
Utilize accurate stream : Yes
Defeat audio cache : Yes
Make use of C2 pointers : No
Read offset correction : 6
Overread into Lead-In and Lead-Out : No
Fill up missing offset samples with silence : Yes
Delete leading and trailing silent blocks : No
Null samples used in CRC calculations : Yes
Used interface : Native Win32 interface for Win NT & 2000
Gap handling : Appended to previous track
Used output format : User Defined Encoder
Selected bitrate : 128 kBit/s
Quality : High
Add ID3 tag : No
Command line compressor : C:\Program Files\Exact Audio Copy\Flac\flac.exe
Additional command line options : -V -8 -T "artist=%a" -T "title=%t" -T "album=%g" -T "date=%y" -T "tracknumber=%n" -T "genre=%m" %s
TOC of the extracted CD
Track | Start | Length | Start sector | End sector
---------------------------------------------------------
1 | 0:00.00 | 5:47.35 | 0 | 26059
2 | 5:47.35 | 5:14.72 | 26060 | 49681
3 | 11:02.32 | 3:51.38 | 49682 | 67044
4 | 14:53.70 | 4:33.49 | 67045 | 87568
5 | 19:27.44 | 4:04.17 | 87569 | 105885
6 | 23:31.61 | 4:04.09 | 105886 | 124194
7 | 27:35.70 | 5:20.03 | 124195 | 148197
8 | 32:55.73 | 5:06.60 | 148198 | 171207
9 | 38:02.58 | 5:31.43 | 171208 | 196075
10 | 43:34.26 | 6:47.43 | 196076 | 226643
Track 1
Filename F:\EACrips\Mazal - 2011 - Axerico en Selanik\01 - Zimbolucha.wav
Pre-gap length 0:00:02.00
Peak level 96.6 %
Extraction speed 4.6 X
Track quality 100.0 %
Test CRC A9FA9EF1
Copy CRC A9FA9EF1
Track not present in AccurateRip database
Copy OK
Track 2
Filename F:\EACrips\Mazal - 2011 - Axerico en Selanik\02 - El Rey.wav
Peak level 96.6 %
Extraction speed 5.1 X
Track quality 100.0 %
Test CRC DA745DF0
Copy CRC DA745DF0
Track not present in AccurateRip database
Copy OK
Track 3
Filename F:\EACrips\Mazal - 2011 - Axerico en Selanik\03 - Dos Amantes.wav
Peak level 96.6 %
Extraction speed 5.3 X
Track quality 100.0 %
Test CRC 9BE3B08C
Copy CRC 9BE3B08C
Track not present in AccurateRip database
Copy OK
Track 4
Filename F:\EACrips\Mazal - 2011 - Axerico en Selanik\04 - El Padre.wav
Peak level 96.6 %
Extraction speed 5.9 X
Track quality 100.0 %
Test CRC 6E2F433B
Copy CRC 6E2F433B
Track not present in AccurateRip database
Copy OK
Track 5
Filename F:\EACrips\Mazal - 2011 - Axerico en Selanik\05 - Axerico.wav
Peak level 96.6 %
Extraction speed 6.1 X
Track quality 100.0 %
Test CRC 5C16E167
Copy CRC 5C16E167
Track not present in AccurateRip database
Copy OK
Track 6
Filename F:\EACrips\Mazal - 2011 - Axerico en Selanik\06 - Oy Kalelumbror.wav
Peak level 96.6 %
Extraction speed 6.5 X
Track quality 100.0 %
Test CRC F1EBCE61
Copy CRC F1EBCE61
Track not present in AccurateRip database
Copy OK
Track 7
Filename F:\EACrips\Mazal - 2011 - Axerico en Selanik\07 - Dame la Mano.wav
Peak level 96.6 %
Extraction speed 7.0 X
Track quality 100.0 %
Test CRC 05EB508A
Copy CRC 05EB508A
Track not present in AccurateRip database
Copy OK
Track 8
Filename F:\EACrips\Mazal - 2011 - Axerico en Selanik\08 - La Hermana.wav
Peak level 96.6 %
Extraction speed 7.3 X
Track quality 100.0 %
Test CRC 3FFA26D0
Copy CRC 3FFA26D0
Track not present in AccurateRip database
Copy OK
Track 9
Filename F:\EACrips\Mazal - 2011 - Axerico en Selanik\09 - Por Que Lloraj.wav
Peak level 96.6 %
Extraction speed 7.7 X
Track quality 100.0 %
Test CRC D40BBE5A
Copy CRC D40BBE5A
Track not present in AccurateRip database
Copy OK
Track 10
Filename F:\EACrips\Mazal - 2011 - Axerico en Selanik\10 - A La Luna.wav
Peak level 96.6 %
Extraction speed 8.3 X
Track quality 100.0 %
Test CRC 833B9ADC
Copy CRC 833B9ADC
Track not present in AccurateRip database
Copy OK
None of the tracks are present in the AccurateRip database
No errors occurred
End of status report
==== Log checksum B075AED9FA44130550325A3EC0A84C58372E875ABC4C0C53FA552C8593BFB5D7 ====
 
Содержание индексной карты (.CUE)
REM GENRE Electronic
REM DATE 2011
REM DISCID 9C0BCD0A
REM COMMENT "ExactAudioCopy v1.0b1"
FILE "01 - Zimbolucha.wav" WAVE
TRACK 01 AUDIO
INDEX 01 00:00:00
FILE "02 - El Rey.wav" WAVE
TRACK 02 AUDIO
INDEX 01 00:00:00
FILE "03 - Dos Amantes.wav" WAVE
TRACK 03 AUDIO
INDEX 01 00:00:00
FILE "04 - El Padre.wav" WAVE
TRACK 04 AUDIO
INDEX 01 00:00:00
FILE "05 - Axerico.wav" WAVE
TRACK 05 AUDIO
INDEX 01 00:00:00
FILE "06 - Oy Kalelumbror.wav" WAVE
TRACK 06 AUDIO
INDEX 01 00:00:00
FILE "07 - Dame la Mano.wav" WAVE
TRACK 07 AUDIO
INDEX 01 00:00:00
FILE "08 - La Hermana.wav" WAVE
TRACK 08 AUDIO
INDEX 01 00:00:00
FILE "09 - Por Que Lloraj.wav" WAVE
TRACK 09 AUDIO
INDEX 01 00:00:00
FILE "10 - A La Luna.wav" WAVE
TRACK 10 AUDIO
INDEX 01 00:00:00
 
Об альбоме (сборнике)
A remarkable duo out of France performing traditional and original Sephardic-Jewish songs in an electronica/dance context, Axerico en Selanik is one of the most surprising CDs in recent years to come out on the Tzadik Jewish Series. Charming and endlessly creative, these imaginative interpretations combine a hypnotic rhythmic drive with heartfelt vocals. A modern take on tradition with an ecstatic edge.
 
Состав
Thomas Baudriller: Programming, Sampler, Bass, Double-bass, Mandolin
Emmanuelle Rouvray: Vocals, Percussion
03:20
269
Нет комментариев. Ваш будет первым!