Поиск

(Afro-Cuban Jazz) Yosvany Terry - Today's Opinion - 2012, FLAC (image+.cue), lossless

(Afro-Cuban Jazz) Yosvany Terry - Today's Opinion - 2012, FLAC (image+.cue), lossless
Треклист:
Yosvany Terry – Today's Opinion
Жанр: Afro-Cuban Jazz
Год издания: 2012
Издатель (лейбл): Criss Cross
Номер по каталогу: Criss 1343
Аудиокодек: FLAC (*.flac)
Тип рипа: image+.cue
Битрейт аудио: lossless
Продолжительность: 66:43
Rip by dreadbull
Наличие сканов в содержимом раздачи: да
Треклист:
01. Summer Relief (8:21)
02. Contrapuntistico (9:29)
03. Inner Speech (7:55)
04. Returning Home (7:43)
05. Harlem Matinee (6:48)
06. Suzanne (8:46)
07. Another Vision Of Oji (9:04)
08. Son Contemporaneo (8:37)
Personnel:
Yosvany Terry - alto & soprano sax, chekeré
Michael Rodríguez - trumpet
Osmany Paredes - piano
Yunior Terry - bass
Obed Calvaire - drums
Pedro Martínez - percussion, vocals
Special guest:
Gonzalo Rubalcaba - keyboards (#8)
Rec.: Systems Two, Brooklyn, NYC, NY, October 26, 2011.
 
 
Лог создания рипа
Exact Audio Copy V1.0 beta 3 from 29. August 2011
EAC extraction logfile from 29. March 2012, 17:29
Yosvany Terry / Today's Opinion
Used drive : ASUS DRW-22B2L Adapter: 0 ID: 1
Read mode : Secure
Utilize accurate stream : Yes
Defeat audio cache : Yes
Make use of C2 pointers : No
Read offset correction : 6
Overread into Lead-In and Lead-Out : No
Fill up missing offset samples with silence : Yes
Delete leading and trailing silent blocks : No
Null samples used in CRC calculations : Yes
Used interface : Native Win32 interface for Win NT & 2000
Used output format : User Defined Encoder
Selected bitrate : 128 kBit/s
Quality : High
Add ID3 tag : Yes
Command line compressor : C:\Program Files\FLAC\flac.exe
Additional command line options : -8 -V -T "ARTIST=%artist%" -T "TITLE=%title%" -T "ALBUM=%albumtitle%" -T "DATE=%year%" -T "TRACKNUMBER=%tracknr%" -T "GENRE=%genre%" -T "PERFORMER=%albuminterpret%" -T "COMPOSER=%composer%" %haslyrics%--tag-from-file=LYRICS="%lyricsfile%"%haslyrics% -T "ALBUMARTIST=%albumartist%" -T "DISCNUMBER=%cdnumber%" -T "TOTALDISCS=%totalcds%" -T "TOTALTRACKS=%numtracks%" -T "COMMENT=%comment%" %source% -o %dest%
TOC of the extracted CD
Track | Start | Length | Start sector | End sector
---------------------------------------------------------
1 | 0:00.00 | 8:20.53 | 0 | 37552
2 | 8:20.53 | 9:28.58 | 37553 | 80210
3 | 17:49.36 | 7:55.04 | 80211 | 115839
4 | 25:44.40 | 7:42.68 | 115840 | 150557
5 | 33:27.33 | 6:47.47 | 150558 | 181129
6 | 40:15.05 | 8:46.25 | 181130 | 220604
7 | 49:01.30 | 9:04.33 | 220605 | 261437
8 | 58:05.63 | 8:36.51 | 261438 | 300188
Range status and errors
Selected range
Filename D:\Donkey Files\Yosvany Terry - Today's Opinion (2012, Criss Cross) [eac-flac-scans] byDrBull\Yosvany Terry - Today's Opinion.wav
Peak level 98.1 %
Extraction speed 6.4 X
Range quality 100.0 %
Test CRC F2D4093F
Copy CRC F2D4093F
Copy OK
No errors occurred
AccurateRip summary
Track 1 not present in database
Track 2 not present in database
Track 3 not present in database
Track 4 not present in database
Track 5 not present in database
Track 6 not present in database
Track 7 not present in database
Track 8 not present in database
None of the tracks are present in the AccurateRip database
End of status report
==== Log checksum E4E536EE527A7E942B79CB24E6FE09EFD94DA37ED19C5373B387692FA0686A1D ====
 
Содержание индексной карты (.CUE)
REM GENRE Jazz
REM DATE 2012
REM DISCID 630FA208
REM COMMENT ExactAudioCopy v1.0b3
PERFORMER "Yosvany Terry"
TITLE "Today's Opinion"
FILE "Yosvany Terry - Today's Opinion.flac" WAVE
TRACK 01 AUDIO
TITLE "Summer Relief"
ISRC CggZ20120010
INDEX 01 00:00:00
TRACK 02 AUDIO
TITLE "Contrapuntistico"
ISRC CggZ20120011
INDEX 00 08:18:53
INDEX 01 08:20:53
TRACK 03 AUDIO
TITLE "Inner Speech"
ISRC CggZ20120012
INDEX 00 17:47:36
INDEX 01 17:49:36
TRACK 04 AUDIO
TITLE "Returning Home"
ISRC CggZ20120013
INDEX 00 25:42:40
INDEX 01 25:44:40
TRACK 05 AUDIO
TITLE "Harlem Matinee"
ISRC CggZ20120014
INDEX 00 33:25:33
INDEX 01 33:27:33
TRACK 06 AUDIO
TITLE "Suzanne"
ISRC CggZ20120015
INDEX 00 40:13:05
INDEX 01 40:15:05
TRACK 07 AUDIO
TITLE "Another Vision Of Oji"
ISRC CggZ20120016
INDEX 00 48:59:30
INDEX 01 49:01:30
TRACK 08 AUDIO
TITLE "Son Contemporaneo"
ISRC CggZ20120017
INDEX 00 58:03:63
INDEX 01 58:05:63
03:21
314
Нет комментариев. Ваш будет первым!