Поиск

(Jazz, Moroccan, Afro-Beat) Malika Zarra - On The Ebony Road - 2006, FLAC (tracks+.cue), lossless

(Jazz, Moroccan, Afro-Beat) Malika Zarra - On The Ebony Road - 2006, FLAC (tracks+.cue), lossless
Треклист:
Malika Zarra / On The Ebony Road
Жанр: Jazz, Moroccan, Afro-Beat
Страна-производитель диска: USA
Год издания: 2006
Издатель (лейбл): Self Released
Страна: Morocco
Аудиокодек: FLAC (*.flac)
Тип рипа: tracks+.cue
Битрейт аудио: lossless
Продолжительность: 48:42
Источник (релизер): Мой рип
Наличие сканов в содержимом раздачи: да
Треклист:
1. Run (6:05)
2. Free (6:48)
3. Pouvoir (5:29)
4. Fayne (4:01)
5. All the same (4:37)
6. Joky heart (7:55)
7. Mchina (6:30)
8. Your jewel (7:17)
 
Лог создания рипа
Exact Audio Copy V1.0 beta 3 from 29. August 2011
EAC extraction logfile from 30. March 2012, 13:02
Malika Zarra / On The Ebony Road
Used drive : TSSTcorpCD/DVDW SH-S182D Adapter: 0 ID: 0
Read mode : Secure
Utilize accurate stream : Yes
Defeat audio cache : Yes
Make use of C2 pointers : No
Read offset correction : 6
Overread into Lead-In and Lead-Out : No
Fill up missing offset samples with silence : Yes
Delete leading and trailing silent blocks : No
Null samples used in CRC calculations : Yes
Used interface : Native Win32 interface for Win NT & 2000
Gap handling : Appended to previous track
Used output format : User Defined Encoder
Selected bitrate : 1024 kBit/s
Quality : High
Add ID3 tag : No
Command line compressor : C:\Program Files\Exact Audio Copy\Flac\flac.exe
Additional command line options : -8 -V -T "ARTIST=%artist%" -T "TITLE=%title%" -T "ALBUM=%albumtitle%" -T "DATE=%year%" -T "TRACKNUMBER=%tracknr%" -T "GENRE=%genre%" -T "PERFORMER=%albuminterpret%" -T "COMPOSER=%composer%" %haslyrics%--tag-from-file=LYRICS="%lyricsfile%"%haslyrics% -T "ALBUMARTIST=%albumartist%" -T "ALBUM ARTIST=%albumartist%" -T "DISCNUMBER=%cdnumber%" -T "TOTALDISCS=%totalcds%" -T "TOTALTRACKS=%numtracks%" -T "COMMENT=%comment%" %source% -o %dest%
TOC of the extracted CD
Track | Start | Length | Start sector | End sector
---------------------------------------------------------
1 | 0:00.00 | 6:05.21 | 0 | 27395
2 | 6:05.21 | 6:48.70 | 27396 | 58065
3 | 12:54.16 | 5:29.01 | 58066 | 82741
4 | 18:23.17 | 4:01.07 | 82742 | 100823
5 | 22:24.24 | 4:37.16 | 100824 | 121614
6 | 27:01.40 | 7:55.15 | 121615 | 157254
7 | 34:56.55 | 6:30.05 | 157255 | 186509
8 | 41:26.60 | 7:17.55 | 186510 | 219339
Track 1
Filename D:\Ripped by Vasiliska\01 Run.wav
Pre-gap length 0:00:02.00
Peak level 98.9 %
Extraction speed 4.9 X
Track quality 100.0 %
Test CRC 41DB319D
Copy CRC 41DB319D
Cannot be verified as accurate (confidence 1) [4A11BDB8], AccurateRip returned [C8715A5D] (AR v2)
Copy OK
Track 2
Filename D:\Ripped by Vasiliska\02 Free.wav
Pre-gap length 0:00:01.26
Peak level 98.8 %
Extraction speed 5.6 X
Track quality 100.0 %
Test CRC 3492D9E1
Copy CRC 3492D9E1
Cannot be verified as accurate (confidence 1) [DCC8BDA1], AccurateRip returned [BEE333E0] (AR v2)
Copy OK
Track 3
Filename D:\Ripped by Vasiliska\03 Pouvoir.wav
Pre-gap length 0:00:02.33
Peak level 98.8 %
Extraction speed 5.5 X
Track quality 99.9 %
Test CRC BBBB43BA
Copy CRC BBBB43BA
Cannot be verified as accurate (confidence 1) [9F904B6B], AccurateRip returned [1539BC09] (AR v2)
Copy OK
Track 4
Filename D:\Ripped by Vasiliska\04 Fayne.wav
Pre-gap length 0:00:02.40
Peak level 98.9 %
Extraction speed 6.2 X
Track quality 100.0 %
Test CRC 9617FB26
Copy CRC 9617FB26
Cannot be verified as accurate (confidence 1) [8E24AA45], AccurateRip returned [A5803634] (AR v2)
Copy OK
Track 5
Filename D:\Ripped by Vasiliska\05 All the same.wav
Pre-gap length 0:00:02.13
Peak level 98.9 %
Extraction speed 6.0 X
Track quality 99.9 %
Test CRC 04E897D2
Copy CRC 04E897D2
Cannot be verified as accurate (confidence 1) [36278ACE], AccurateRip returned [1B2ADADB] (AR v2)
Copy OK
Track 6
Filename D:\Ripped by Vasiliska\06 Joky heart.wav
Pre-gap length 0:00:02.13
Peak level 98.8 %
Extraction speed 7.5 X
Track quality 100.0 %
Test CRC BDF9A648
Copy CRC BDF9A648
Cannot be verified as accurate (confidence 1) [1C0F39B7], AccurateRip returned [BA17769F] (AR v2)
Copy OK
Track 7
Filename D:\Ripped by Vasiliska\07 Mchina.wav
Pre-gap length 0:00:01.86
Peak level 98.8 %
Extraction speed 7.3 X
Track quality 99.9 %
Test CRC 49793E79
Copy CRC 49793E79
Cannot be verified as accurate (confidence 1) [9ACCC5AC], AccurateRip returned [688758DE] (AR v2)
Copy OK
Track 8
Filename D:\Ripped by Vasiliska\08 Your jewel.wav
Pre-gap length 0:00:01.80
Peak level 98.9 %
Extraction speed 8.4 X
Track quality 100.0 %
Test CRC 0DFAAFA2
Copy CRC 0DFAAFA2
Cannot be verified as accurate (confidence 1) [CF4D1A26], AccurateRip returned [2437135E] (AR v2)
Copy OK
No tracks could be verified as accurate
You may have a different pressing from the one(s) in the database
No errors occurred
End of status report
---- CUETools DB Plugin V2.1.3
[CTDB TOCID: NeaoiCYsDU.D6B.u8cgYODbpdBw-] disk not present in database, Submit result: NeaoiCYsDU.D6B.u8cgYODbpdBw- has been uploaded
==== Log checksum C35356CA0A1EB19812CE4155F5228B338679E55B94E5BD113FEC11B68C128B61 ====
 
Содержание индексной карты (.CUE)
REM GENRE Jazz
REM DATE 2006
REM DISCID 700B6C08
REM COMMENT "ExactAudioCopy v1.0b3"
PERFORMER "Malika Zarra"
TITLE "On The Ebony Road"
FILE "01 Run.wav" WAVE
TRACK 01 AUDIO
TITLE "Run"
PERFORMER "Malika Zarra"
INDEX 01 00:00:00
TRACK 02 AUDIO
TITLE "Free"
PERFORMER "Malika Zarra"
INDEX 00 06:04:01
FILE "02 Free.wav" WAVE
INDEX 01 00:00:00
TRACK 03 AUDIO
TITLE "Pouvoir"
PERFORMER "Malika Zarra"
INDEX 00 06:46:45
FILE "03 Pouvoir.wav" WAVE
INDEX 01 00:00:00
TRACK 04 AUDIO
TITLE "Fayne"
PERFORMER "Malika Zarra"
INDEX 00 05:26:46
FILE "04 Fayne.wav" WAVE
INDEX 01 00:00:00
TRACK 05 AUDIO
TITLE "All the same"
PERFORMER "Malika Zarra"
INDEX 00 03:58:72
FILE "05 All the same.wav" WAVE
INDEX 01 00:00:00
TRACK 06 AUDIO
TITLE "Joky heart"
PERFORMER "Malika Zarra"
INDEX 00 04:35:06
FILE "06 Joky heart.wav" WAVE
INDEX 01 00:00:00
TRACK 07 AUDIO
TITLE "Mchina"
PERFORMER "Malika Zarra"
INDEX 00 07:53:25
FILE "07 Mchina.wav" WAVE
INDEX 01 00:00:00
TRACK 08 AUDIO
TITLE "Your jewel"
PERFORMER "Malika Zarra"
INDEX 00 06:28:20
FILE "08 Your jewel.wav" WAVE
INDEX 01 00:00:00
 
Об исполнителе (группе)
Moroccan singer/composer/producer, MALIKA ZARRA is a multi-cultural shape-shifter, an enchantress who leaps effortlessly between seemingly unconnected languages and traditions, uniting them while utilizing each to further enrich the others. The exotically beautiful artist with the velvety, sinuous mezzo-soprano voice has demonstrated a rare ability to communicate both powerful and subtle ideas and feelings in French, English and Moroccan Arabic and is now a much-in-demand headliner at nightclubs and festivals the world over.
Malika was born in Southern Morocco, in a little village called Ouled Teima. Her father's family was originally from M'Hamid, an oasis just off the Sahara, while her mother was a Berber from the High Atlas. During her early childhood, there was always music and dancing in the house and Malika sang almost from babyhood. After her family emigrated to a suburb of Paris, she found herself straddling two very different societies. “I had to be French at school yet retain my Moroccan cultural heritage at home, she recalls, Like many immigrant children, I learned to switch quickly between the two. It was hard but brought me a lot of good things too”.
Malika’s interest in music led her to take up the clarinet in grade school. Meanwhile, she was being exposed to a wide variety of musical styles, she cites fellow Moroccan Chiha Hamdaouia, the Lebanese-born, Egyptian-based ud virtuoso/composer Farid el Atrache, and Algerian-French singer Warda (Al-Jazairia) as major influences. She also absorbed albums by Ella Fitzgerald, Bobby McFerrin, Thelonious Monk, Stevie Wonder and Aretha Franklin. “When I decided to learn singing, I started with jazz because I was attracted by the improvisation, which is also important in Arabic music”, she says. Although her family was not in favor of her pursuing a musical career, Malika nonetheless attended classes at conservatories and jazz academies at Tours and Marseille and studied privately with Sarah Lazarus and Françoise Galais.
During her apprentice phase, during which she became in fixture in France and on the Paris scene, Malika performed at a variety of well-known clubs and events, including Festival L’esprit Jazz de St Germain, Sunside, Baiser Salé, Hot Brass, Espace Julien, Pelle Mêle and Cité de la Musique. In the beginning, she interpreted classic material strictly in the original languages -- then a breakthrough occurred. “When I started to sing in Arabic, writing new lyrics for jazz standards, I found that people reacted really strongly. There is always more emotion when you sing in your own language because your feelings are more intense”. As a composer, the process was similar ; asked why and when she began writing her own songs, she says impishly, “After getting tired of forgetting English lyrics !”
An early visit to New York made a strong impression on her, “I came the first time in 1996. It was an amazing experience. I felt that I could be more myself and learn a lot of things, musically and as a human being”. In 2004, Malika decided to relocate to New York City. Having crafted a repertoire that incorporated her native Berber, Gnawa (a percussive form of religious trance music) and Shaâbi (Arabic working class blues) heritages, the intellectual elegance of French pop, plus freewheeling jazz rhythms and techniques, her reputation as a solo act began to grow. Malika's vocal versatility led to invitations to participate in a wide variety of projects, including house, dance, gospel, funk and African music, and kept her busy as a session and back-up singer.
Malika eventually recorded and/or sat in with Tommy Campbell, Makoto Ozone, Lonnie Plaxico, Brahim Fribgane, Andy Milne, Michael Cain, Jason Lindner, Omer Avital, Brad Jones, James Hurt, Jacques Schwarz-Bart, Keith Carlock, David Gilmore, Aaron Heick, Rufus Capadoccia, Francis M_Bappe, Miles Griffith, Harvey S, Kenny Davis, Jerome Harris, Gino Sitson, Francis Jacob, Mamadou Ba, Harvey Wirht, Manu Koch, Gretchen Parlato, Sachal Vasandani and many others. Among the venues she has graced are the Carnegie Hall, the London Jazz Festival, the Festival du Monde Arabe, the Duke Ellington Jazz Festival, French Embassy in Washington DC, Brooklyn Maqam festival, JOE’S PUB, SOB’s, the Jazz Festival at Untermeyer Park, Europa Club, Enzo’s Jazz Club, Riverbank State Park, Zinc Bar Jazz Club, Knitting Factory, Makor, Brooklyn Museum, Ballatou Montreal, Chorus Jazz club, Porgy & Bess Jazz club, Domicil jazz club, WDR 3 (German Radio).
Malika’s debut solo album "On the Ebony Road" (2006), reveals a firm grasp of a richly diverse bouquet of references, fusing Orient and Occident, East and West, into a lively, sensual, fresh, and deeply poem of inclusion. Working with some of the finest international jazz players now active, she is in her element as bandleader and collaborator, at once creating a new vocabulary and intuitively going with the flow. She is well aware that in the USA, there is still another set of realities, every bit as complex as those she experienced in France, and that it’s not always easy to get past fear and prejudice. However, she remains upbeat and confident of her ability to reach out with her voice and heart. “We all need to get just a little bit interested in other cultures”.
03:21
330
Нет комментариев. Ваш будет первым!