Поиск

(Latin Jazz / Post-Bop) Roberto Fonseca - Yo - 2012, FLAC (tracks+.cue), lossless

(Latin Jazz / Post-Bop) Roberto Fonseca - Yo - 2012, FLAC (tracks+.cue), lossless
Треклист:
Roberto Fonseca / Yo
Жанр: Latin Jazz / Post-Bop
Год издания: 2012
Издатель (лейбл): Jazz Village
Аудиокодек: FLAC (*.flac)
Тип рипа: tracks+.cue
Битрейт аудио: lossless
Продолжительность: 1:03:15
Источник (релизер): Оригинальный диск
Наличие сканов в содержимом раздачи: нет
Треклист:
1. 80's (6:24)
2. BIBISA (4:32)
3. MI NEGRA AVE MARIA (5:20)
4. 7 RAYOS (5:29)
5. EL SONADORESTA CANSADO (5:04)
6. CHABANI (5:11)
7. GNAWA STOP (5:16)
8. EL MAYOR (1:21)
9. JMF (4:48)
10. ASI ES LA VIDA (4:30)
11. QUIEN SOY YO (3:41)
12. RACHEL (3:36)
13. BIBISA (Remix) (4:07)
14. 80's (Remix) (3:56)
 
Лог создания рипа
Exact Audio Copy V1.0 beta 2 from 29. April 2011
EAC extraction logfile from 1. April 2012, 0:09
Roberto Fonseca / yo
Used drive : Optiarc DVD RW AD-5260S Adapter: 0 ID: 0
Read mode : Secure
Utilize accurate stream : Yes
Defeat audio cache : Yes
Make use of C2 pointers : No
Read offset correction : 48
Overread into Lead-In and Lead-Out : No
Fill up missing offset samples with silence : Yes
Delete leading and trailing silent blocks : No
Null samples used in CRC calculations : Yes
Used interface : Native Win32 interface for Win NT & 2000
Gap handling : Appended to previous track
Used output format : User Defined Encoder
Selected bitrate : 896 kBit/s
Quality : High
Add ID3 tag : No
Command line compressor : C:\Program Files (x86)\Exact Audio Copy\Flac\flac.exe
Additional command line options : -V -8 -T "Genre=%genre%" -T "Artist=%artist%" -T "Title=%title%" -T "Album=%albumtitle%" -T "Date=%year%" -T "Tracknumber=%tracknr%" -T "Comment=%comment%" %source%
TOC of the extracted CD
Track | Start | Length | Start sector | End sector
---------------------------------------------------------
1 | 0:00.00 | 6:24.29 | 0 | 28828
2 | 6:24.29 | 4:32.32 | 28829 | 49260
3 | 10:56.61 | 5:20.33 | 49261 | 73293
4 | 16:17.19 | 5:29.23 | 73294 | 97991
5 | 21:46.42 | 5:04.53 | 97992 | 120844
6 | 26:51.20 | 5:11.11 | 120845 | 144180
7 | 32:02.31 | 5:16.36 | 144181 | 167916
8 | 37:18.67 | 1:21.62 | 167917 | 174053
9 | 38:40.54 | 4:48.48 | 174054 | 195701
10 | 43:29.27 | 4:30.56 | 195702 | 216007
11 | 48:00.08 | 3:41.35 | 216008 | 232617
12 | 51:41.43 | 3:36.49 | 232618 | 248866
13 | 55:18.17 | 4:07.44 | 248867 | 267435
14 | 59:25.61 | 3:56.14 | 267436 | 285149
Track 1
Filename F:\Music\Music\Roberto Fonseca - Yo\01 - Roberto Fonseca - 80's.wav
Pre-gap length 0:00:02.00
Peak level 99.1 %
Extraction speed 2.6 X
Track quality 100.0 %
Test CRC 40BBEA13
Copy CRC 40BBEA13
Copy OK
Track 2
Filename F:\Music\Music\Roberto Fonseca - Yo\02 - Roberto Fonseca - BIBISA.wav
Peak level 99.9 %
Extraction speed 2.9 X
Track quality 100.0 %
Test CRC 471E525F
Copy CRC 471E525F
Copy OK
Track 3
Filename F:\Music\Music\Roberto Fonseca - Yo\03 - Roberto Fonseca - MI NEGRA AVE MARIA.wav
Peak level 99.9 %
Extraction speed 3.2 X
Track quality 100.0 %
Test CRC 5E0FBF31
Copy CRC 5E0FBF31
Copy OK
Track 4
Filename F:\Music\Music\Roberto Fonseca - Yo\04 - Roberto Fonseca - 7 RAYOS.wav
Peak level 99.1 %
Extraction speed 3.2 X
Track quality 99.9 %
Test CRC 76E06C68
Copy CRC 76E06C68
Copy OK
Track 5
Filename F:\Music\Music\Roberto Fonseca - Yo\05 - Roberto Fonseca - EL SONADORESTA CANSADO.wav
Peak level 99.3 %
Extraction speed 3.7 X
Track quality 100.0 %
Test CRC 1384E0A2
Copy CRC 1384E0A2
Copy OK
Track 6
Filename F:\Music\Music\Roberto Fonseca - Yo\06 - Roberto Fonseca - CHABANI.wav
Peak level 99.1 %
Extraction speed 4.0 X
Track quality 100.0 %
Test CRC FBF9BA4C
Copy CRC FBF9BA4C
Copy OK
Track 7
Filename F:\Music\Music\Roberto Fonseca - Yo\07 - Roberto Fonseca - GNAWA STOP.wav
Peak level 99.9 %
Extraction speed 4.2 X
Track quality 100.0 %
Test CRC B88FBBFA
Copy CRC B88FBBFA
Copy OK
Track 8
Filename F:\Music\Music\Roberto Fonseca - Yo\08 - Roberto Fonseca - EL MAYOR.wav
Peak level 68.1 %
Extraction speed 3.3 X
Track quality 100.0 %
Test CRC 23E276D5
Copy CRC 23E276D5
Copy OK
Track 9
Filename F:\Music\Music\Roberto Fonseca - Yo\09 - Roberto Fonseca - JMF.wav
Peak level 99.9 %
Extraction speed 4.4 X
Track quality 100.0 %
Test CRC 4C983D12
Copy CRC 4C983D12
Copy OK
Track 10
Filename F:\Music\Music\Roberto Fonseca - Yo\10 - Roberto Fonseca - ASI ES LA VIDA.wav
Peak level 99.9 %
Extraction speed 4.6 X
Track quality 100.0 %
Test CRC B86E3AD0
Copy CRC B86E3AD0
Copy OK
Track 11
Filename F:\Music\Music\Roberto Fonseca - Yo\11 - Roberto Fonseca - QUIEN SOY YO.wav
Peak level 99.9 %
Extraction speed 4.5 X
Track quality 100.0 %
Test CRC 1E6B760D
Copy CRC 1E6B760D
Copy OK
Track 12
Filename F:\Music\Music\Roberto Fonseca - Yo\12 - Roberto Fonseca - RACHEL.wav
Peak level 99.1 %
Extraction speed 4.7 X
Track quality 100.0 %
Test CRC 4EAE1F02
Copy CRC 4EAE1F02
Copy OK
Track 13
Filename F:\Music\Music\Roberto Fonseca - Yo\13 - Roberto Fonseca - BIBISA (Remix).wav
Peak level 99.3 %
Extraction speed 4.8 X
Track quality 100.0 %
Test CRC CBBB32F5
Copy CRC CBBB32F5
Copy OK
Track 14
Filename F:\Music\Music\Roberto Fonseca - Yo\14 - Roberto Fonseca - 80's (Remix).wav
Peak level 99.1 %
Extraction speed 5.0 X
Track quality 100.0 %
Test CRC 46CA9C4A
Copy CRC 46CA9C4A
Copy OK
No errors occurred
End of status report
==== Log checksum A2F9A65509614187F858A8290E82654AC3913670AF2AB71ADC61EB48E68E04C6 ====
 
Содержание индексной карты (.CUE)
REM DISCID B90EDA0E
REM COMMENT "ExactAudioCopy v1.0b2"
PERFORMER "Roberto Fonseca"
TITLE "Yo"
FILE "01 - Roberto Fonseca - 80's.flac" WAVE
TRACK 01 AUDIO
TITLE "80's"
PERFORMER "Roberto Fonseca"
ISRC ES76A1100068
INDEX 01 00:00:00
FILE "02 - Roberto Fonseca - Bibisa.flac" WAVE
TRACK 02 AUDIO
TITLE "Bibisa"
PERFORMER "Roberto Fonseca"
ISRC ES76A1100069
INDEX 01 00:00:00
FILE "03 - Roberto Fonseca - Mi Negra Ave Maria.flac" WAVE
TRACK 03 AUDIO
TITLE "Mi Negra Ave Maria"
PERFORMER "Roberto Fonseca"
ISRC ES76A1100070
INDEX 01 00:00:00
FILE "04 - Roberto Fonseca - 7 Rayos.flac" WAVE
TRACK 04 AUDIO
TITLE "7 Rayos"
PERFORMER "Roberto Fonseca"
ISRC ES76A1100071
INDEX 01 00:00:00
FILE "05 - Roberto Fonseca - El Sonadoresta Cansado.flac" WAVE
TRACK 05 AUDIO
TITLE "El Sonadoresta Cansado"
PERFORMER "Roberto Fonseca"
ISRC ES76A1100072
INDEX 01 00:00:00
FILE "06 - Roberto Fonseca - Chabani.flac" WAVE
TRACK 06 AUDIO
TITLE "Chabani"
PERFORMER "Roberto Fonseca"
ISRC ES76A1100073
INDEX 01 00:00:00
FILE "07 - Roberto Fonseca - Gnawa Stop.flac" WAVE
TRACK 07 AUDIO
TITLE "Gnawa Stop"
PERFORMER "Roberto Fonseca"
ISRC ES76A1100074
INDEX 01 00:00:00
FILE "08 - Roberto Fonseca - El Mayor.flac" WAVE
TRACK 08 AUDIO
TITLE "El Mayor"
PERFORMER "Roberto Fonseca"
ISRC ES76A1100075
INDEX 01 00:00:00
FILE "09 - Roberto Fonseca - JMF.flac" WAVE
TRACK 09 AUDIO
TITLE "JMF"
PERFORMER "Roberto Fonseca"
ISRC ES76A1100076
INDEX 01 00:00:00
FILE "10 - Roberto Fonseca - Asi Es La Vida.flac" WAVE
TRACK 10 AUDIO
TITLE "Asi Es La Vida"
PERFORMER "Roberto Fonseca"
ISRC ES76A1100077
INDEX 01 00:00:00
FILE "11 - Roberto Fonseca - Quien Soy Yo.flac" WAVE
TRACK 11 AUDIO
TITLE "Quien Soy Yo"
PERFORMER "Roberto Fonseca"
ISRC ES76A1100078
INDEX 01 00:00:00
FILE "12 - Roberto Fonseca - Rachel.flac" WAVE
TRACK 12 AUDIO
TITLE "Rachel"
PERFORMER "Roberto Fonseca"
ISRC ES76A1100079
INDEX 01 00:00:00
FILE "13 - Roberto Fonseca - Bibisa (Count Remix).flac" WAVE
TRACK 13 AUDIO
TITLE "Bibisa (Count Remix)"
PERFORMER "Roberto Fonseca"
ISRC ES76A1100080
INDEX 01 00:00:00
FILE "14 - Roberto Fonseca - 80's (Count Remix).flac" WAVE
TRACK 14 AUDIO
TITLE "80's (Count Remix)"
PERFORMER "Roberto Fonseca"
ISRC ES76A1100081
INDEX 01 00:00:00
 
Доп. информация (английский)
BBC Review
Fonseca is one of the most exciting musicians in the new Cuban scene.
Robin Denselow 2012-03-12
Roberto Fonseca has moved on, once again. The Cuban pianist first came to international attention when he achieved the seemingly impossible by successfully taking over from the late and brilliant Ruben Gonzalez in the Buena Vista Social Club, but he has gone to prove that he is not just a dazzling accompanist but a bravely original composer and performer capable of a startling variety of styles.
His previous solo sets have shown him moving away from Buena Vista-style material to a more adventurous approach, mixing his Cuban roots with themes from around the world. The trend continues here: he mixes jazz with global influences, especially from Africa, and Yo is remarkable for its variety, its confidence, and its sheer energy. Opener 80’s was written by Fonseca and is an upbeat party dance piece in which he switches between piano and organ. It sets a tone, with furious percussion that is matched by his equally high-energy, stomping keyboard work, eventually giving way to a more lyrical theme.
He is naturally fascinated by Cuba’s links with Africa, and the album continues his collaborations with African artists. His Akokan album of 2009 featured the Cape Verdean singer Mayra Andrade, but this time round his favoured female vocalist is new Malian star Fatoumata Diawara. Bibisa starts with her cool vocals matched against an insistent riff, but develops into a furious instrumental work-out with piano matched against traditional West African instruments: Baba Sissoko is on n’goni, and Sekou Kouyate on kora. Elsewhere, there’s an appearance from the great Assane Mboup, one of the lead singers with the veteran Senegalese band Orchestra Baobab, who takes the lead on the cheerful, distinctively Cuban Quien Soy Yo. Elsewhere, there are North African influences on Chabani, with its blend of galloping hand percussion and jazzy piano with the chanting, drifting vocals of Faudel, while Gnawa Stop makes use of the hypnotic repeated rhythm patterns of the descendants of black Africans who were brought across the Sahara as slaves.
Then there are the surprises. El Mayor is a drifting piano piece matched against the crackle of a radio switching between different stations, while 7 Rayos pays homage to the religion of the Yoruba people who moved from Africa to Cuba with the slave trade, and mixes electronic programming with kora, and a clanking riff with piano and a recording of a great Cuban poet, the late Nicolás Guillén. Braver still, there’s Mi Negra Ave Maria, a track co-produced by DJ Gilles Peterson, which starts like a slow, grand hymn and ends up with the energy of a furious gospel session, with an English language poem from Mike Ladd added. By matching tradition with experiment, Fonseca has become one of the most exciting musicians in the new Cuban scene.
03:22
699
Нет комментариев. Ваш будет первым!