Поиск

(Ethnic Jazz / Contemporary Jazz) Kepera Trio & Yoram Lachish - Levantasy: East-West Intercultural Adventures in Music - 2010, FLAC (tracks+.cue), lossless

(Ethnic Jazz / Contemporary Jazz) Kepera Trio & Yoram Lachish - Levantasy: East-West Intercultural Adventures in Music - 2010, FLAC (tracks+.cue), lossless
Kepera Trio & Yoram Lachish - Levantasy: East-West Intercultural Adventures in Music
Жанр: Ethnic Jazz / Contemporary Jazz
Год издания: 2010
Издатель (лейбл): Kepera Records
Номер по каталогу: 104901
Аудиокодек: FLAC (*.flac)
Тип рипа: tracks+.cue
Битрейт аудио: lossless
Продолжительность: 01:04:16
Источник (релизер): собственный рип с оригинального Audio CD
Наличие сканов в содержимом раздачи: да
Треклист:
1. Ashera (04:55)
2. Maimonides (04:21)
3. The Path (06:58)
4. Zuckerkandl (06:22)
5. Aviv (02:51)
6. Apadana (07:58)
7. Adon Haslichot (Master of Forgiveness) (04:16)
8. Autumn Will (06:27)
9. Anouar - Dastagh (06:27)
10. Dastgah Naqashi (03:43)
11. Zarb-E-Reng (06:17)
12. Epilogue: Maimonides (03:38)
Доп. информация:
Musicians:
YORAM LACHIS - oboe, english horn, zurna, shehnai
REMBRANDT FRERICHS - grand piano, shruti box
TONY OVERWATER - acoustic bass
VINSENT PLANJER - drums, tombak
Recorded and mixed in 2009 by Lex Tanger @ dudok studio Amsterdam
LEVANTASY Official Site
YORAM LACHIS Official Site
REMBRANDT FRERICHS Official Site
TONY OVERWATER Official Site
KEPERA TRIO & YORAM LACHISH - Levantasy challengerecords.com
 
... text ...
"... Levantasy is about melodic refinement: poetic, subtle and elegant"
NRC-Handelsblad, Dutch national newspaper
 
Album Info
The Kepera trio was formed when its members discovered they shared an interest in the music from the Middle East, particularly the Arabic and Persian traditions. Rembrandt Frerichs lived and worked in Cairo for a number of years in his early twenties, soaking up the cultures and sounds of the orient. Tony Overwater has played with many musicians from the region and consequently visited the Levant on numerous occasions. More recently, Vinsent Planjer, through his studies of the Persian Tombak, discovered the warmth and improvisational expressiveness of Persian music. Rooted and educated in the rich history of jazz (all three hold a master’s degree in jazz, obtained from the Royal Conservatory in The Hague, Holland), they wondered how to materialize their shared passion. They quickly found a fourth collaborator in Yoram Lachish, who possesses the same mix of talent, training and ambition. Born and raised in Israel, he spontaneously absorbed the fusion between eastern and western cultures manifested in Israeli daily life and culture. Classically trained on the oboe, he Later developed an improvisational style, making him one the few oboists in the world to successfully improvise on their instrument and making him a perfect fit for the Kepera trio. This became Levantasy. In the music the members of Levantasy attempt to incorporate the sounds and concepts of middle Eastern music into what’s essentially a jazz environment, never losing sight of the ultimate goal, which is to create things of beauty. Although it is tempting to interpret the seemingly effortless mixing of Arabic, Persian, Jewish and western styles as a metaphor for the search for harmony among the peoples of the Middle East, the project does not aim to carry a political message. However, if the music would inspire the listener, at least momentarily, to forget the politics and appreciate the boundary-breaking power of art, Levantasy would consider that to be a mission accomplished.
~ challengerecords.com
 
... back ...
 
EAC extraction logfile from 3. April 2012, 11:35
Exact Audio Copy V1.0 beta 3 from 29. August 2011
EAC extraction logfile from 3. April 2012, 11:35
Kepera Trio & Yoram Lachish / Levantasy
Used drive : Optiarc DVD RW AD-7260S Adapter: 2 ID: 0
Read mode : Secure
Utilize accurate stream : Yes
Defeat audio cache : Yes
Make use of C2 pointers : No
Read offset correction : 48
Overread into Lead-In and Lead-Out : No
Fill up missing offset samples with silence : Yes
Delete leading and trailing silent blocks : No
Null samples used in CRC calculations : Yes
Used interface : Native Win32 interface for Win NT & 2000
Gap handling : Appended to previous track
Used output format : User Defined Encoder
Selected bitrate : 128 kBit/s
Quality : High
Add ID3 tag : No
Command line compressor : D:\Program Files\Exact Audio Copy 1.0 beta3\Flac\flac.exe
Additional command line options : -V -8 -T "Genre=%genre%" -T "Artist=%artist%" -T "Title=%title%" -T "Album=%albumtitle%" -T "Date=%year%" -T "Tracknumber=%tracknr%" -T "Comment=%comment%" %source%
TOC of the extracted CD
Track | Start | Length | Start sector | End sector
---------------------------------------------------------
1 | 0:00.00 | 4:55.28 | 0 | 22152
2 | 4:55.28 | 4:21.37 | 22153 | 41764
3 | 9:16.65 | 6:58.04 | 41765 | 73118
4 | 16:14.69 | 6:21.43 | 73119 | 101736
5 | 22:36.37 | 2:51.16 | 101737 | 114577
6 | 25:27.53 | 7:57.67 | 114578 | 150419
7 | 33:25.45 | 4:16.27 | 150420 | 169646
8 | 37:41.72 | 6:27.09 | 169647 | 198680
9 | 44:09.06 | 6:27.12 | 198681 | 227717
10 | 50:36.18 | 3:43.06 | 227718 | 244448
11 | 54:19.24 | 6:17.11 | 244449 | 272734
12 | 60:36.35 | 3:37.72 | 272735 | 289081
Track 1
Filename L:\rip by readab\Kepera Trio & Yoram Lachish - Levantasy (2010)\01 - Ashera.wav
Pre-gap length 0:00:02.00
Peak level 97.9 %
Extraction speed 2.5 X
Track quality 100.0 %
Test CRC 1C4B31F2
Copy CRC 1C4B31F2
Accurately ripped (confidence 1) [82A56042] (AR v2)
Copy OK
Track 2
Filename L:\rip by readab\Kepera Trio & Yoram Lachish - Levantasy (2010)\02 - Maimonides.wav
Peak level 97.9 %
Extraction speed 2.7 X
Track quality 100.0 %
Test CRC 641D7A48
Copy CRC 641D7A48
Accurately ripped (confidence 1) [13273955] (AR v2)
Copy OK
Track 3
Filename L:\rip by readab\Kepera Trio & Yoram Lachish - Levantasy (2010)\03 - The Path.wav
Peak level 98.1 %
Extraction speed 3.2 X
Track quality 100.0 %
Test CRC D22CDFBC
Copy CRC D22CDFBC
Accurately ripped (confidence 1) [7BBA54B7] (AR v2)
Copy OK
Track 4
Filename L:\rip by readab\Kepera Trio & Yoram Lachish - Levantasy (2010)\04 - Zuckerkandl.wav
Peak level 85.5 %
Extraction speed 3.6 X
Track quality 100.0 %
Test CRC 02402ACF
Copy CRC 02402ACF
Accurately ripped (confidence 1) [BBEFFD8D] (AR v2)
Copy OK
Track 5
Filename L:\rip by readab\Kepera Trio & Yoram Lachish - Levantasy (2010)\05 - Aviv.wav
Peak level 97.9 %
Extraction speed 3.4 X
Track quality 100.0 %
Test CRC 0D7977E5
Copy CRC 0D7977E5
Accurately ripped (confidence 1) [4A6BA417] (AR v2)
Copy OK
Track 6
Filename L:\rip by readab\Kepera Trio & Yoram Lachish - Levantasy (2010)\06 - Apadana.wav
Peak level 97.9 %
Extraction speed 4.1 X
Track quality 100.0 %
Test CRC 68C732CF
Copy CRC 68C732CF
Accurately ripped (confidence 1) [E81C4FD4] (AR v2)
Copy OK
Track 7
Filename L:\rip by readab\Kepera Trio & Yoram Lachish - Levantasy (2010)\07 - Adon Haslichot.wav
Peak level 97.8 %
Extraction speed 4.1 X
Track quality 100.0 %
Test CRC 36CE29CF
Copy CRC 36CE29CF
Accurately ripped (confidence 1) [CB48B3F9] (AR v2)
Copy OK
Track 8
Filename L:\rip by readab\Kepera Trio & Yoram Lachish - Levantasy (2010)\08 - Autumn Will.wav
Peak level 97.8 %
Extraction speed 4.1 X
Track quality 99.9 %
Test CRC F2F04D5F
Copy CRC F2F04D5F
Accurately ripped (confidence 1) [9B082BF3] (AR v2)
Copy OK
Track 9
Filename L:\rip by readab\Kepera Trio & Yoram Lachish - Levantasy (2010)\09 - Anouar - Dastagh.wav
Peak level 97.8 %
Extraction speed 4.8 X
Track quality 100.0 %
Test CRC 372A3B5A
Copy CRC 372A3B5A
Accurately ripped (confidence 1) [DB24E126] (AR v2)
Copy OK
Track 10
Filename L:\rip by readab\Kepera Trio & Yoram Lachish - Levantasy (2010)\10 - Dastgah Naqashi.wav
Peak level 97.8 %
Extraction speed 4.0 X
Track quality 99.9 %
Test CRC 0295AFCA
Copy CRC 0295AFCA
Accurately ripped (confidence 1) [C23BBB3B] (AR v2)
Copy OK
Track 11
Filename L:\rip by readab\Kepera Trio & Yoram Lachish - Levantasy (2010)\11 - Zarb-E-Reng.wav
Peak level 97.9 %
Extraction speed 4.7 X
Track quality 99.9 %
Test CRC 9295ABCC
Copy CRC 9295ABCC
Accurately ripped (confidence 1) [0CE5E6C5] (AR v2)
Copy OK
Track 12
Filename L:\rip by readab\Kepera Trio & Yoram Lachish - Levantasy (2010)\12 - Epilogue - Maimonides.wav
Peak level 98.0 %
Extraction speed 5.0 X
Track quality 100.0 %
Test CRC 5F199F27
Copy CRC 5F199F27
Accurately ripped (confidence 1) [31901645] (AR v2)
Copy OK
All tracks accurately ripped
No errors occurred
End of status report
==== Log checksum D25F5642C8AB8F95BDC180CC04242E85700AF1A7A901257BD62D24D30B860FB2 ====
 
Содержание индексной карты (.CUE)
REM GENRE Jazz
REM DATE 2010
REM DISCID B00F0E0C
REM COMMENT "ExactAudioCopy v1.0b3"
PERFORMER "Kepera Trio & Yoram Lachish"
TITLE "Levantasy"
FILE "01 - Ashera.wav" WAVE
TRACK 01 AUDIO
TITLE "Ashera"
PERFORMER "Kepera Trio & Yoram Lachish"
ISRC NLA121000001
INDEX 01 00:00:00
FILE "02 - Maimonides.wav" WAVE
TRACK 02 AUDIO
TITLE "Maimonides"
PERFORMER "Kepera Trio & Yoram Lachish"
ISRC NLA121000002
INDEX 01 00:00:00
FILE "03 - The Path.wav" WAVE
TRACK 03 AUDIO
TITLE "The Path"
PERFORMER "Kepera Trio & Yoram Lachish"
ISRC NLA121000003
INDEX 01 00:00:00
FILE "04 - Zuckerkandl.wav" WAVE
TRACK 04 AUDIO
TITLE "Zuckerkandl"
PERFORMER "Kepera Trio & Yoram Lachish"
ISRC NLA121000004
INDEX 01 00:00:00
FILE "05 - Aviv.wav" WAVE
TRACK 05 AUDIO
TITLE "Aviv"
PERFORMER "Kepera Trio & Yoram Lachish"
ISRC NLA121000005
INDEX 01 00:00:00
FILE "06 - Apadana.wav" WAVE
TRACK 06 AUDIO
TITLE "Apadana"
PERFORMER "Kepera Trio & Yoram Lachish"
ISRC NLA121000006
INDEX 01 00:00:00
FILE "07 - Adon Haslichot.wav" WAVE
TRACK 07 AUDIO
TITLE "Adon Haslichot"
PERFORMER "Kepera Trio & Yoram Lachish"
ISRC NLA121000007
INDEX 01 00:00:00
FILE "08 - Autumn Will.wav" WAVE
TRACK 08 AUDIO
TITLE "Autumn Will"
PERFORMER "Kepera Trio & Yoram Lachish"
ISRC NLA121000008
INDEX 01 00:00:00
FILE "09 - Anouar - Dastagh.wav" WAVE
TRACK 09 AUDIO
TITLE "Anouar - Dastagh"
PERFORMER "Kepera Trio & Yoram Lachish"
ISRC NLA121000009
INDEX 01 00:00:00
FILE "10 - Dastgah Naqashi.wav" WAVE
TRACK 10 AUDIO
TITLE "Dastgah Naqashi"
PERFORMER "Kepera Trio & Yoram Lachish"
ISRC NLA121000010
INDEX 01 00:00:00
FILE "11 - Zarb-E-Reng.wav" WAVE
TRACK 11 AUDIO
TITLE "Zarb-E-Reng"
PERFORMER "Kepera Trio & Yoram Lachish"
ISRC NLA121000011
INDEX 01 00:00:00
FILE "12 - Epilogue - Maimonides.wav" WAVE
TRACK 12 AUDIO
TITLE "Epilogue - Maimonides"
PERFORMER "Kepera Trio & Yoram Lachish"
ISRC NLA121000012
INDEX 01 00:00:00
03:23
392
Нет комментариев. Ваш будет первым!