Поиск

(Fusion, Latin Jazz, Piano Jazz) Chano Dominguez - Flamenco Sketches - 2012, FLAC (tracks+.cue), lossless

(Fusion, Latin Jazz, Piano Jazz) Chano Dominguez - Flamenco Sketches - 2012, FLAC (tracks+.cue), lossless
Треклист:
•Chano Dominguez - Flamenco Sketches•
Жанр: Fusion, Latin Jazz, Piano Jazz
Год издания: 2012
Издатель (лейбл): Blue Note
Номер по каталогу: 509996 79453 2 0
Аудиокодек: FLAC (*.flac)
Тип рипа: tracks+.cue
Битрейт аудио: lossless
Продолжительность: 01:01:09
Источник (релизер): jlgt
Наличие сканов в содержимом раздачи: да
Треклист:
01. Flamenco Sketches 16:04
02. Freddie Freeloader 9:33
03. Blue in Green 8:08
04. So What 7:45
05. All Blues 6:53
06. Nardis 9:05
07. Serpent's Tooth 3:38
Personnel:
Chano Domínguez - piano
Mario Rossy - bass
Israel "Piraña" Suárez - percussion
Blas "Kejío" Córdoba - vocals, palmas (hand claps)
Tomás "Tomasito" Moreno - palmas (hand claps)
 
Лог создания рипа
Exact Audio Copy V1.0 beta 2 from 29. April 2011
EAC extraction logfile from 31. March 2012, 19:09
Chano Dominguez / Flamenco Sketches
Used drive : PLEXTOR DVDR PX-L890SA Adapter: 2 ID: 1
Read mode : Secure
Utilize accurate stream : Yes
Defeat audio cache : Yes
Make use of C2 pointers : No
Read offset correction : 6
Overread into Lead-In and Lead-Out : No
Fill up missing offset samples with silence : Yes
Delete leading and trailing silent blocks : No
Null samples used in CRC calculations : Yes
Used interface : Native Win32 interface for Win NT & 2000
Gap handling : Appended to previous track
Used output format : User Defined Encoder
Selected bitrate : 256 kBit/s
Quality : High
Add ID3 tag : No
Command line compressor : C:\Program Files (x86)\Exact Audio Copy\FLAC\FLAC.EXE
Additional command line options : -8 -V -T "ARTIST=%artist%" -T "TITLE=%title%" -T "ALBUM=%albumtitle%" -T "DATE=%year%" -T "TRACKNUMBER=%tracknr%" -T "TOTALTRACKS=%numtracks%" -T "GENRE=%genre%" -T "ALBUMARTIST=%albumartist%" -T "ALBUM ARTIST=%albumartist%
TOC of the extracted CD
Track | Start | Length | Start sector | End sector
---------------------------------------------------------
1 | 0:00.00 | 16:04.14 | 0 | 72313
2 | 16:04.14 | 9:33.28 | 72314 | 115316
3 | 25:37.42 | 8:08.43 | 115317 | 151959
4 | 33:46.10 | 7:45.62 | 151960 | 186896
5 | 41:31.72 | 6:53.63 | 186897 | 217934
6 | 48:25.60 | 9:05.39 | 217935 | 258848
7 | 57:31.24 | 3:38.72 | 258849 | 275270
Track 1
Filename F:\Flac Rips\01 - Flamenco Sketches.wav
Pre-gap length 0:00:02.00
Peak level 94.4 %
Extraction speed 4.3 X
Track quality 100.0 %
Test CRC F4596D5C
Copy CRC F4596D5C
Track not present in AccurateRip database
Copy OK
Track 2
Filename F:\Flac Rips\02 - Freedie Freeloader.wav
Peak level 94.4 %
Extraction speed 4.8 X
Track quality 99.9 %
Test CRC CD4E9B4D
Copy CRC CD4E9B4D
Track not present in AccurateRip database
Copy OK
Track 3
Filename F:\Flac Rips\03 - Blue in Green.wav
Peak level 88.6 %
Extraction speed 5.8 X
Track quality 100.0 %
Test CRC 19E6E087
Copy CRC 19E6E087
Track not present in AccurateRip database
Copy OK
Track 4
Filename F:\Flac Rips\04 - So What.wav
Peak level 94.4 %
Extraction speed 6.3 X
Track quality 100.0 %
Test CRC 5C67A34B
Copy CRC 5C67A34B
Track not present in AccurateRip database
Copy OK
Track 5
Filename F:\Flac Rips\05 - All Blues.wav
Peak level 94.4 %
Extraction speed 6.6 X
Track quality 100.0 %
Test CRC 183D2787
Copy CRC 183D2787
Track not present in AccurateRip database
Copy OK
Track 6
Filename F:\Flac Rips\06 - Nardis.wav
Peak level 94.4 %
Extraction speed 7.2 X
Track quality 100.0 %
Test CRC E3062D49
Copy CRC E3062D49
Track not present in AccurateRip database
Copy OK
Track 7
Filename F:\Flac Rips\07 - Serpent's Tooth.wav
Peak level 94.4 %
Extraction speed 6.8 X
Track quality 100.0 %
Test CRC F774A5F5
Copy CRC F774A5F5
Track not present in AccurateRip database
Copy OK
None of the tracks are present in the AccurateRip database
No errors occurred
End of status report
==== Log checksum 209DB7BFA4B18322E6845A33E8E84A913702293984571F07DD9F108D072CA2CE ====
 
Содержание индексной карты (.CUE)
REM GENRE Jazz
REM DATE 2012
REM DISCID 680E5607
REM COMMENT "ExactAudioCopy v1.0b2"
PERFORMER "Chano Dominguez"
TITLE "Flamenco Sketches"
FILE "01 - Flamenco Sketches.wav" WAVE
TRACK 01 AUDIO
TITLE "Flamenco Sketches"
PERFORMER "Chano Dominguez"
INDEX 01 00:00:00
FILE "02 - Freedie Freeloader.wav" WAVE
TRACK 02 AUDIO
TITLE "Freedie Freeloader"
PERFORMER "Chano Dominguez"
INDEX 01 00:00:00
FILE "03 - Blue in Green.wav" WAVE
TRACK 03 AUDIO
TITLE "Blue in Green"
PERFORMER "Chano Dominguez"
INDEX 01 00:00:00
FILE "04 - So What.wav" WAVE
TRACK 04 AUDIO
TITLE "So What"
PERFORMER "Chano Dominguez"
INDEX 01 00:00:00
FILE "05 - All Blues.wav" WAVE
TRACK 05 AUDIO
TITLE "All Blues"
PERFORMER "Chano Dominguez"
INDEX 01 00:00:00
FILE "06 - Nardis.wav" WAVE
TRACK 06 AUDIO
TITLE "Nardis"
PERFORMER "Chano Dominguez"
INDEX 01 00:00:00
FILE "07 - Serpent's Tooth.wav" WAVE
TRACK 07 AUDIO
TITLE "Serpent's Tooth"
PERFORMER "Chano Dominguez"
INDEX 01 00:00:00
02:23
303
Нет комментариев. Ваш будет первым!