Поиск

(Klezmer Jazz) David Krakauer - Pruflas: The Book of Angels Vol. 18 - 2012, FLAC (tracks+.cue), lossless

(Klezmer Jazz) David Krakauer - Pruflas: The Book of Angels Vol. 18 - 2012, FLAC (tracks+.cue), lossless
Треклист:
David Krakauer / Pruflas: The Book of Angels Vol. 18
Жанр: Klezmer Jazz
Страна-производитель диска: USA
Год издания: 2012
Издатель (лейбл): Tzadik
Номер по каталогу: TZ7396
Страна: USA
Аудиокодек: FLAC (*.flac)
Тип рипа: tracks+.cue
Битрейт аудио: lossless
Продолжительность: 46:34
Источник (релизер): what.cd
Наличие сканов в содержимом раздачи: нет
Треклист:
1. Ebuhuel
2. Kasbeel
3. Vual
4. Parzial-oranir
5. Egion
6. Neriah-mahariel
7. Tandal
8. Monadel
 
Лог создания рипа
Exact Audio Copy V1.0 beta 3 from 29. August 2011
EAC extraction logfile from 28. March 2012, 20:56
David Krakauer / Pruflas: Book of Angels Volume 18
Used drive : TSSTcorpDVD+-RW TS-L633J Adapter: 0 ID: 0
Read mode : Secure
Utilize accurate stream : Yes
Defeat audio cache : Yes
Make use of C2 pointers : No
Read offset correction : 6
Overread into Lead-In and Lead-Out : No
Fill up missing offset samples with silence : Yes
Delete leading and trailing silent blocks : No
Null samples used in CRC calculations : Yes
Used interface : Native Win32 interface for Win NT & 2000
Gap handling : Appended to previous track
Used output format : User Defined Encoder
Selected bitrate : 128 kBit/s
Quality : High
Add ID3 tag : No
Command line compressor : C:\Program Files (x86)\Exact Audio Copy\Flac\flac.exe
Additional command line options : -8 -V -T "ARTIST=%artist%" -T "TITLE=%title%" -T "ALBUM=%albumtitle%" -T "DATE=%year%" -T "TRACKNUMBER=%tracknr%" -T "GENRE=%genre%" -T "PERFORMER=%albuminterpret%" -T "COMPOSER=%composer%" %haslyrics%--tag-from-file=LYRICS="%lyricsfile%"%haslyrics% -T "ALBUMARTIST=%albumartist%" -T "DISCNUMBER=%cdnumber%" -T "TOTALDISCS=%totalcds%" -T "TOTALTRACKS=%numtracks%" -T "COMMENT=%comment%" %source% -o %dest%
TOC of the extracted CD
Track | Start | Length | Start sector | End sector
---------------------------------------------------------
1 | 0:00.00 | 3:51.38 | 0 | 17362
2 | 3:51.38 | 4:17.65 | 17363 | 36702
3 | 8:09.28 | 4:58.62 | 36703 | 59114
4 | 13:08.15 | 11:10.51 | 59115 | 109415
5 | 24:18.66 | 5:43.72 | 109416 | 135212
6 | 30:02.63 | 7:03.22 | 135213 | 166959
7 | 37:06.10 | 3:35.55 | 166960 | 183139
8 | 40:41.65 | 5:51.55 | 183140 | 209519
Track 1
Filename F:\new music downloads\David Krakauer - 2012 - Pruflas\01 - Ebubuel.wav
Pre-gap length 0:00:02.00
Peak level 96.6 %
Extraction speed 1.1 X
Track quality 100.0 %
Test CRC CDB8FE6F
Copy CRC CDB8FE6F
Track not present in AccurateRip database
Copy OK
Track 2
Filename F:\new music downloads\David Krakauer - 2012 - Pruflas\02 - Kasbeel.wav
Peak level 96.6 %
Extraction speed 1.2 X
Track quality 100.0 %
Test CRC 033D6173
Copy CRC 033D6173
Track not present in AccurateRip database
Copy OK
Track 3
Filename F:\new music downloads\David Krakauer - 2012 - Pruflas\03 - Vual.wav
Peak level 96.6 %
Extraction speed 1.4 X
Track quality 100.0 %
Test CRC 29E5930F
Copy CRC 29E5930F
Track not present in AccurateRip database
Copy OK
Track 4
Filename F:\new music downloads\David Krakauer - 2012 - Pruflas\04 - Parzial-Oranir.wav
Peak level 96.6 %
Extraction speed 1.7 X
Track quality 100.0 %
Test CRC DB2445C5
Copy CRC DB2445C5
Track not present in AccurateRip database
Copy OK
Track 5
Filename F:\new music downloads\David Krakauer - 2012 - Pruflas\05 - Egion.wav
Peak level 96.6 %
Extraction speed 1.6 X
Track quality 99.9 %
Test CRC 9B0DA189
Copy CRC 9B0DA189
Track not present in AccurateRip database
Copy OK
Track 6
Filename F:\new music downloads\David Krakauer - 2012 - Pruflas\06 - Neriah-Mahariel.wav
Peak level 96.6 %
Extraction speed 1.8 X
Track quality 99.9 %
Test CRC 667A2AAA
Copy CRC 667A2AAA
Track not present in AccurateRip database
Copy OK
Track 7
Filename F:\new music downloads\David Krakauer - 2012 - Pruflas\07 - Tandal.wav
Peak level 96.6 %
Extraction speed 1.9 X
Track quality 100.0 %
Test CRC 406E673C
Copy CRC 406E673C
Track not present in AccurateRip database
Copy OK
Track 8
Filename F:\new music downloads\David Krakauer - 2012 - Pruflas\08 - Monadel.wav
Peak level 96.6 %
Extraction speed 2.1 X
Track quality 100.0 %
Test CRC C564DCF9
Copy CRC C564DCF9
Track not present in AccurateRip database
Copy OK
None of the tracks are present in the AccurateRip database
No errors occurred
End of status report
==== Log checksum 865913639D8E2473BF3F3297AC8C06D4AF6717F9EA435DF7FB6E46A13B03A040 ====
 
Содержание индексной карты (.CUE)
REM DATE 2012
REM DISCID 5B0AE908
REM COMMENT "ExactAudioCopy v1.0b3"
PERFORMER "David Krakauer"
TITLE "Pruflas: Book of Angels Volume 18"
FILE "01 - Ebubuel.wav" WAVE
TRACK 01 AUDIO
TITLE "Ebubuel"
PERFORMER "David Krakauer"
INDEX 01 00:00:00
FILE "02 - Kasbeel.wav" WAVE
TRACK 02 AUDIO
TITLE "Kasbeel"
PERFORMER "David Krakauer"
INDEX 01 00:00:00
FILE "03 - Vual.wav" WAVE
TRACK 03 AUDIO
TITLE "Vual"
PERFORMER "David Krakauer"
INDEX 01 00:00:00
FILE "04 - Parzial-Oranir.wav" WAVE
TRACK 04 AUDIO
TITLE "Parzial-Oranir"
PERFORMER "David Krakauer"
INDEX 01 00:00:00
FILE "05 - Egion.wav" WAVE
TRACK 05 AUDIO
TITLE "Egion"
PERFORMER "David Krakauer"
INDEX 01 00:00:00
FILE "06 - Neriah-Mahariel.wav" WAVE
TRACK 06 AUDIO
TITLE "Neriah-Mahariel"
PERFORMER "David Krakauer"
INDEX 01 00:00:00
FILE "07 - Tandal.wav" WAVE
TRACK 07 AUDIO
TITLE "Tandal"
PERFORMER "David Krakauer"
INDEX 01 00:00:00
FILE "08 - Monadel.wav" WAVE
TRACK 08 AUDIO
TITLE "Monadel"
PERFORMER "David Krakauer"
INDEX 01 00:00:00
 
Состав
David Krakauer: Clarinet, Bass Clarinet
Michael Sarin: Drums
Sheryl Baile: Guitar
Jerome Harris: Electric Bass, Voice
Keepalive: Laptop
03:19
299
Нет комментариев. Ваш будет первым!