Вы используете незарегистрированную версию компонента "Вкладки"!

Поиск

(Modern Creative, British Jazz) Graham Collier Sextet - Down Another Road - 2000, FLAC (tracks+.cue), lossless

(Modern Creative, British Jazz) Graham Collier Sextet - Down Another Road - 2000, FLAC (tracks+.cue), lossless
Треклист:
Graham Collier Sextet - Down Another Road
Жанр: Modern Creative, British Jazz
Страна-производитель диска: Spain
Год издания диска: 2000
Издатель (лейбл): Disconforme sl
Номер по каталогу: Disc 1958 CD
Аудиокодек: FLAC (*.flac)
Тип рипа: tracks+.cue
Битрейт аудио: lossless
Продолжительность: 39:08
Источник (релизер): собственный рип с оригинального диска.
Наличие сканов в содержимом раздачи: да
Треклист:
01. Down Another Road 5:09
02. Danish Blue 17:30
03. The Barley Mow 5:30
04. Aberdeen Angus 6:02
05. Lullaby for a Lonely Child 5:35
06. Molewrench 8:54
 
Лог создания рипа
Exact Audio Copy V1.0 beta 2 from 29. April 2011
EAC extraction logfile from 29. November 2011, 21:12
Graham Collier Sextet / Down Another Road
Used drive : TSSTcorpCDDVDW SH-S222A Adapter: 1 ID: 0
Read mode : Secure
Utilize accurate stream : Yes
Defeat audio cache : Yes
Make use of C2 pointers : No
Read offset correction : 6
Overread into Lead-In and Lead-Out : No
Fill up missing offset samples with silence : Yes
Delete leading and trailing silent blocks : No
Null samples used in CRC calculations : Yes
Used interface : Native Win32 interface for Win NT & 2000
Gap handling : Appended to previous track
Used output format : User Defined Encoder
Selected bitrate : 896 kBit/s
Quality : High
Add ID3 tag : No
Command line compressor : C:\Tool\CD\EAC10\FLAC\FLAC.EXE
Additional command line options : -6 -V -T "ARTIST=%artist%" -T "TITLE=%title%" -T "ALBUM=%albumtitle%" -T "DATE=%year%" -T "TRACKNUMBER=%tracknr%" -T "GENRE=%genre%" -T "COMMENT=%comment%" -T "BAND=%albuminterpret%" -T "COMPOSER=%composer%" %haslyrics%--ta
TOC of the extracted CD
Track | Start | Length | Start sector | End sector
---------------------------------------------------------
1 | 0:00.00 | 5:16.54 | 0 | 23753
2 | 5:16.54 | 17:39.47 | 23754 | 103225
3 | 22:56.26 | 5:34.61 | 103226 | 128336
4 | 28:31.12 | 6:07.58 | 128337 | 155919
5 | 34:38.70 | 5:40.56 | 155920 | 181475
6 | 40:19.51 | 8:54.60 | 181476 | 221585
Track 1
Filename C:\! UPLOAD\Graham Collier Sextet - Down Another Road (2000) [FLAC] {disconforme}\01 - Down Another Road.wav
Pre-gap length 0:00:02.00
Peak level 100.0 %
Extraction speed 2.9 X
Track quality 99.9 %
Test CRC 4BA82A90
Copy CRC 4BA82A90
Accurately ripped (confidence 1) [3278668F] (AR v1)
Copy OK
Track 2
Filename C:\! UPLOAD\Graham Collier Sextet - Down Another Road (2000) [FLAC] {disconforme}\02 - Danish Blue.wav
Pre-gap length 0:00:05.40
Peak level 94.0 %
Extraction speed 3.6 X
Track quality 100.0 %
Test CRC 4D304B12
Copy CRC 4D304B12
Accurately ripped (confidence 1) [C44EA9BD] (AR v1)
Copy OK
Track 3
Filename C:\! UPLOAD\Graham Collier Sextet - Down Another Road (2000) [FLAC] {disconforme}\03 - The Barley Mow.wav
Pre-gap length 0:00:11.07
Peak level 85.2 %
Extraction speed 3.4 X
Track quality 100.0 %
Test CRC 9777D6AA
Copy CRC 9777D6AA
Accurately ripped (confidence 1) [9FA16840] (AR v1)
Copy OK
Track 4
Filename C:\! UPLOAD\Graham Collier Sextet - Down Another Road (2000) [FLAC] {disconforme}\04 - Aberdeen Angus.wav
Pre-gap length 0:00:05.63
Peak level 100.0 %
Extraction speed 3.4 X
Track quality 100.0 %
Test CRC 71378847
Copy CRC 71378847
Accurately ripped (confidence 1) [32A27A0D] (AR v1)
Copy OK
Track 5
Filename C:\! UPLOAD\Graham Collier Sextet - Down Another Road (2000) [FLAC] {disconforme}\05 - Lullaby for a Lonely Child.wav
Pre-gap length 0:00:06.37
Peak level 89.6 %
Extraction speed 3.4 X
Track quality 100.0 %
Test CRC B075120E
Copy CRC B075120E
Accurately ripped (confidence 1) [45EFF1D9] (AR v1)
Copy OK
Track 6
Filename C:\! UPLOAD\Graham Collier Sextet - Down Another Road (2000) [FLAC] {disconforme}\06 - Molewrench.wav
Pre-gap length 0:00:06.50
Peak level 100.0 %
Extraction speed 3.4 X
Track quality 100.0 %
Test CRC AC9E77F3
Copy CRC AC9E77F3
Accurately ripped (confidence 1) [453A1674] (AR v1)
Copy OK
All tracks accurately ripped
No errors occurred
End of status report
---- CUETools DB Plugin V2.1.2
[CTDB TOCID: nuJHldBHfq2GYDmmAF3U2mN_cLk-] found, Submit result: already submitted
[844151af] (1/1) Accurately ripped
==== Log checksum 6E080B6B22693D0EFACF9C2C3D4CB2A188D53B8BDADECCA3E7046C1B8DA071E1 ====
 
Содержание индексной карты (.CUE)
REM GENRE "Contemporary Jazz"
REM DATE 2000
REM DISCID 400B8A06
REM COMMENT "ExactAudioCopy v1.0b2"
PERFORMER "Graham Collier Sextet"
TITLE "Down Another Road"
FILE "01 - Down Another Road.wav" WAVE
TRACK 01 AUDIO
TITLE "Down Another Road"
PERFORMER "Graham Collier Sextet"
INDEX 01 00:00:00
TRACK 02 AUDIO
TITLE "Danish Blue"
PERFORMER "Graham Collier Sextet"
INDEX 00 05:11:14
FILE "02 - Danish Blue.wav" WAVE
INDEX 01 00:00:00
TRACK 03 AUDIO
TITLE "The Barley Mow"
PERFORMER "Graham Collier Sextet"
INDEX 00 17:28:40
FILE "03 - The Barley Mow.wav" WAVE
INDEX 01 00:00:00
TRACK 04 AUDIO
TITLE "Aberdeen Angus"
PERFORMER "Graham Collier Sextet"
INDEX 00 05:28:73
FILE "04 - Aberdeen Angus.wav" WAVE
INDEX 01 00:00:00
TRACK 05 AUDIO
TITLE "Lullaby for a Lonely Child"
PERFORMER "Graham Collier Sextet"
INDEX 00 06:01:21
FILE "05 - Lullaby for a Lonely Child.wav" WAVE
INDEX 01 00:00:00
TRACK 06 AUDIO
TITLE "Molewrench"
PERFORMER "Graham Collier Sextet"
INDEX 00 05:34:06
FILE "06 - Molewrench.wav" WAVE
INDEX 01 00:00:00
Доп. информация:
Recorded March 21 & 22, 1969, in London
First issued on LP by Fontana, 1969
First issued on CD by Disconforme, 2000
 
Об исполнителе (группе)
Composer / arranger / bandleader / bassist Graham Collier is one of the Godfathers of modern British Jazz, and his contribution to the genre as a musician, educator and writer are monumental. Although initially schooled in the US (Collier was the first student from the UK to be awarded a scholarship at the Berklee School of Music in Boston in the 1960s), he was in fact one of the pioneers of the European Jazz, accepting the American Jazz tradition as a basis for further development and exploration based on the European cultural heritage. His innovative approach as a composer and arranger were immensely influential not only on the local British scene, but also throughout the entire Europe, especially his usage of irregular meters and time signatures.
 
Об альбоме (сборнике)
The irony of Graham Collier's output being reissued on CD through a small Spanish label is mitigated by the knowledge that at the time of this reissue, the bassist/ composer was living in Spain. This is one of several splendid recordings of Collier reissued by the label and this one maintains the high level of quality achieved by the others. ..... At heart, Collier is an instigator: He sets up the framework for his improvisers. Sometimes he incorporates rock riffs but mostly he stays squarely within the boundaries of modern jazz writing. His arranging skills have been compared favorably and fairly to those of Gil Evans and Charles Mingus, and the influences are there, but Collier is an original writer. His works are generally tonally centered and contain melody, but he encourages collective improvisation and stretched harmonies. His pieces carefully balance emotional depth and intellectual rigor, with wonderful harmonies and consistently high levels of performance. This one hits the mark with its carefully constructed compositions and magnificent improvisations. by Steve Loewy
 
Состав
Harry Beckett - flugelhorn
Graham Collier - bass
Nick Evans - trombone
Karl Jenkins - oboe, piano
John Marshall - drums
Stan Sulzmann - alto sax, tenor sax
Any questions -> support@pro-jazz.com. По всем вопросам пишите -> support@pro-jazz.com
19:38
196
Нет комментариев. Ваш будет первым!