Вы используете незарегистрированную версию компонента "Вкладки"!

Поиск

(Avant-Garde Jazz) Joel Futterman - 'Kidd' Jordan Quartet - New Orleans Rising - 1996, FLAC (tracks+.cue), lossless

(Avant-Garde Jazz) Joel Futterman - 'Kidd' Jordan Quartet - New Orleans Rising - 1996, FLAC (tracks+.cue), lossless
Треклист:
Joel Futterman - 'Kidd' Jordan Quartet - New Orleans Rising
Жанр: Avant-Garde Jazz
Год издания диска: 1996
Издатель (лейбл): Konnex
Номер по каталогу: KCD 5076
Аудиокодек: FLAC (*.flac)
Тип рипа: tracks+.cue
Битрейт аудио: lossless
Продолжительность: 00:55:46
Источник (релизер): Рип с диска.
Наличие сканов в содержимом раздачи: нет
Треклист:
1. After Hours 4:08
2. The Other Side of Midnight 17:09
3. New Orleans Rising 34:27
Personnel:
Joel Futterman - p, ss
Kid Jordan - ts
Elton Heron - el.b
Alvin Fielder - dr
 
Лог создания рипа
Exact Audio Copy V1.0 beta 3 from 29. August 2011
Отчёт EAC об извлечении, выполненном 13. декабря 2011, 19:56
Joel Futterman - 'Kidd' Jordan Quartet / New Orleans Rising
Дисковод: Optiarc DVD RW AD-5200A Adapter: 0 ID: 1
Режим чтения : Достоверность
Использование точного потока : Да
Отключение кэша аудио : Да
Использование указателей C2 : Нет
Коррекция смещения при чтении : 48
Способность читать области Lead-in и Lead-out : Нет
Заполнение пропущенных сэмплов тишиной : Да
Удаление блоков с тишиной в начале и конце : Нет
При вычислениях CRC использовались нулевые сэмплы : Да
Интерфейс : Установленный внешний ASPI-интерфейс
Обработка зазоров : Добавлено к предыдущему треку
Выходной формат : Пользовательский кодировщик
Выбранный битрейт : 128 kBit/s
Качество : Высокий
Добавление ID3-тега : Нет
Утилита сжатия : C:\Program Files\Exact Audio Copy\Flac\flac.exe
Дополнительные параметры : -V -8 -T "Genre=%genre%" -T "Artist=%artist%" -T "Title=%title%" -T "Album=%albumtitle%" -T "Date=%year%" -T "Tracknumber=%tracknr%" -T "Comment=%comment%" %source%
TOC извлечённого CD
Трек | Старт | Длительность | Начальный сектор | Конечный сектор
---------------------------------------------------------------------
1 | 0:00.00 | 4:06.55 | 0 | 18504
2 | 4:06.55 | 17:09.34 | 18505 | 95713
3 | 21:16.14 | 34:29.36 | 95714 | 250924
Трек 1
Имя файла F:\1996.Joel Futterman - 'Kidd' Jordan Quartet - New Orleans Rising\01. After Hours.wav
Длина предзазора 0:00:02.00
Пиковый уровень 98.4 %
Скорость извлечения 2.5 X
Качество трека 100.0 %
CRC теста D20020A3
CRC копии D20020A3
Трек не обнаружен в базе AccurateRip
Копирование... OK
Трек 2
Имя файла F:\1996.Joel Futterman - 'Kidd' Jordan Quartet - New Orleans Rising\02. The Other Side of Midnight.wav
Пиковый уровень 98.7 %
Скорость извлечения 3.3 X
Качество трека 100.0 %
CRC теста D564D352
CRC копии D564D352
Трек не обнаружен в базе AccurateRip
Копирование... OK
Трек 3
Имя файла F:\1996.Joel Futterman - 'Kidd' Jordan Quartet - New Orleans Rising\03. New Orleans Rising.wav
Пиковый уровень 98.7 %
Скорость извлечения 3.8 X
Качество трека 100.0 %
CRC теста E4BAB872
CRC копии E4BAB872
Трек не обнаружен в базе AccurateRip
Копирование... OK
Ни одного трека нет в базе AccurateRip
Ошибок не произошло
Конец отчёта
==== Контрольная сумма отчёта BFE77FFB60DE58E6612B672AE3409273F3CE2E568E6B55082337D1775BE59DA3 ====
 
Содержание индексной карты (.CUE)
REM GENRE Jazz
REM DATE 1996
REM DISCID 220D1103
REM COMMENT "ExactAudioCopy v1.0b3"
PERFORMER "Joel Futterman - 'Kidd' Jordan Quartet"
TITLE "New Orleans Rising"
FILE "01. After Hours.wav" WAVE
TRACK 01 AUDIO
TITLE "After Hours"
PERFORMER "Joel Futterman - 'Kidd' Jordan Quartet"
ISRC 000000000000
INDEX 01 00:00:00
FILE "02. The Other Side of Midnight.wav" WAVE
TRACK 02 AUDIO
TITLE "The Other Side of Midnight"
PERFORMER "Joel Futterman - 'Kidd' Jordan Quartet"
ISRC 000000000000
INDEX 01 00:00:00
FILE "03. New Orleans Rising.wav" WAVE
TRACK 03 AUDIO
TITLE "New Orleans Rising"
PERFORMER "Joel Futterman - 'Kidd' Jordan Quartet"
ISRC 000000000000
INDEX 01 00:00:00
Any questions -> support@pro-jazz.com. По всем вопросам пишите -> support@pro-jazz.com
19:38
171
Нет комментариев. Ваш будет первым!