Вы используете незарегистрированную версию компонента "Вкладки"!

Поиск

(Free Jazz) Last Exit (Peter Brotzmann, Sonny Sharrock, Bill Laswell, Shannon Jackson) - Headfirst into the Flames: Live in Europe - 1993, FLAC (tracks+.cue), lossless

(Free Jazz) Last Exit (Peter Brotzmann, Sonny Sharrock, Bill Laswell, Shannon Jackson) - Headfirst into the Flames: Live in Europe - 1993, FLAC (tracks+.cue), lossless
Треклист:
Last Exit (Peter Brotzmann, Sonny Sharrock, Bill Laswell, Shannon Jackson)
Жанр: Free Jazz
Страна-производитель диска: US
Год издания диска: 1993
Издатель (лейбл): MuWorks Records
Номер по каталогу: MUW 1013 CD
Аудиокодек: FLAC (*.flac)
Тип рипа: tracks+.cue
Битрейт аудио: lossless
Продолжительность: 63:06
Источник (релизер): what.cd (box)
Наличие сканов в содержимом раздачи: нет
Треклист:
1. Lizard Eyes 5:43
2. Don't Be A Cry Baby Whatever You Do 6:37
3. So Small, So Weak, This Bloody Sweat of Loving 4:37
4. Headfirst Into The Flames 3:11
5. A Knight of Ghosts and Shadows 6:18
6. Jesus! What Gorgeous Monkeys We Are 10:52
7. Hanged Man Are Always Naked 10:05
8. No One Knows Anything 5:22
9. I Must Confess I'm A Cannibal 10:18
 
Лог создания рипа
Exact Audio Copy V0.99 prebeta 5 from 4. May 2009
EAC extraction logfile from 6. July 2011, 15:19
Last Exit / Headfirst Into The Flames. Live in Europe
Used drive : SAMSUNG CDRW/DVD SM-308B Adapter: 0 ID: 0
Read mode : Secure
Utilize accurate stream : Yes
Defeat audio cache : Yes
Make use of C2 pointers : No
Read offset correction : 120
Overread into Lead-In and Lead-Out : No
Fill up missing offset samples with silence : Yes
Delete leading and trailing silent blocks : No
Null samples used in CRC calculations : Yes
Used interface : Native Win32 interface for Win NT & 2000
Gap handling : Appended to previous track
Used output format : User Defined Encoder
Selected bitrate : 192 kBit/s
Quality : High
Add ID3 tag : No
Command line compressor : C:\Documents and Settings\jhudak\Desktop\Joe\Exact Audio Copy\FLAC\flac.exe
Additional command line options : -V -8 -T "artist=%a" -T "title=%t" -T "album=%g" -T "date=%y" -T "tracknumber=%n" -T "genre=%m" %s
TOC of the extracted CD
Track | Start | Length | Start sector | End sector
---------------------------------------------------------
1 | 0:00.00 | 5:43.68 | 0 | 25792
2 | 5:43.68 | 6:37.37 | 25793 | 55604
3 | 12:21.30 | 4:37.10 | 55605 | 76389
4 | 16:58.40 | 3:11.15 | 76390 | 90729
5 | 20:09.55 | 6:18.38 | 90730 | 119117
6 | 26:28.18 | 10:52.12 | 119118 | 168029
7 | 37:20.30 | 10:05.10 | 168030 | 213414
8 | 47:25.40 | 5:22.18 | 213415 | 237582
9 | 52:47.58 | 10:18.02 | 237583 | 283934
Track 1
Filename C:\Documents and Settings\jhudak\Desktop\Joe\Last Exit - Headfirst Into The Flames. Live in Europe (1993)\Last Exit - 01 - Lizard Eyes.wav
Pre-gap length 0:00:02.00
Peak level 100.0 %
Track quality 100.0 %
Test CRC 7C76A52E
Copy CRC 7C76A52E
Track not present in AccurateRip database
Copy OK
Track 2
Filename C:\Documents and Settings\jhudak\Desktop\Joe\Last Exit - Headfirst Into The Flames. Live in Europe (1993)\Last Exit - 02 - Don't Be A Cry Baby Whatever You Do.wav
Peak level 100.0 %
Track quality 99.9 %
Test CRC 96E19B6C
Copy CRC 96E19B6C
Track not present in AccurateRip database
Copy OK
Track 3
Filename C:\Documents and Settings\jhudak\Desktop\Joe\Last Exit - Headfirst Into The Flames. Live in Europe (1993)\Last Exit - 03 - So Small, So Weak, This Bloody Sweat Of Loving.wav
Peak level 100.0 %
Track quality 100.0 %
Test CRC 03D55DB2
Copy CRC 03D55DB2
Track not present in AccurateRip database
Copy OK
Track 4
Filename C:\Documents and Settings\jhudak\Desktop\Joe\Last Exit - Headfirst Into The Flames. Live in Europe (1993)\Last Exit - 04 - Headfirst Into The Flames.wav
Peak level 100.0 %
Track quality 100.0 %
Test CRC 7D042942
Copy CRC 7D042942
Track not present in AccurateRip database
Copy OK
Track 5
Filename C:\Documents and Settings\jhudak\Desktop\Joe\Last Exit - Headfirst Into The Flames. Live in Europe (1993)\Last Exit - 05 - A Knight Of Ghosts And Shadows.wav
Peak level 100.0 %
Track quality 100.0 %
Test CRC CE031D0E
Copy CRC CE031D0E
Track not present in AccurateRip database
Copy OK
Track 6
Filename C:\Documents and Settings\jhudak\Desktop\Joe\Last Exit - Headfirst Into The Flames. Live in Europe (1993)\Last Exit - 06 - Jesus! What Gorgeous Monkeys We Are.wav
Peak level 100.0 %
Track quality 99.9 %
Test CRC B6CD6C84
Copy CRC B6CD6C84
Track not present in AccurateRip database
Copy OK
Track 7
Filename C:\Documents and Settings\jhudak\Desktop\Joe\Last Exit - Headfirst Into The Flames. Live in Europe (1993)\Last Exit - 07 - Hanged Man Are Always Naked.wav
Pre-gap length 0:00:00.02
Peak level 100.0 %
Track quality 99.9 %
Test CRC 0F6885B3
Copy CRC 0F6885B3
Track not present in AccurateRip database
Copy OK
Track 8
Filename C:\Documents and Settings\jhudak\Desktop\Joe\Last Exit - Headfirst Into The Flames. Live in Europe (1993)\Last Exit - 08 - No One Knows Anything.wav
Peak level 100.0 %
Track quality 100.0 %
Test CRC A6BFDA93
Copy CRC A6BFDA93
Track not present in AccurateRip database
Copy OK
Track 9
Filename C:\Documents and Settings\jhudak\Desktop\Joe\Last Exit - Headfirst Into The Flames. Live in Europe (1993)\Last Exit - 09 - I Must Confess I'm A Cannibal.wav
Peak level 100.0 %
Track quality 99.9 %
Test CRC 17A82F99
Copy CRC 17A82F99
Track not present in AccurateRip database
Copy OK
None of the tracks are present in the AccurateRip database
No errors occurred
End of status report
 
Содержание индексной карты (.CUE)
REM GENRE Jazz
REM DATE 1993
REM DISCID 650EC909
REM COMMENT "ExactAudioCopy v0.99pb5"
PERFORMER "Last Exit"
TITLE "Headfirst Into The Flames. Live in Europe"
FILE "Last Exit - 01 - Lizard Eyes.wav" WAVE
TRACK 01 AUDIO
TITLE "Lizard Eyes"
PERFORMER "Last Exit"
INDEX 01 00:00:00
FILE "Last Exit - 02 - Don't Be A Cry Baby Whatever You Do.wav" WAVE
TRACK 02 AUDIO
TITLE "Don't Be A Cry Baby Whatever You Do"
PERFORMER "Last Exit"
INDEX 01 00:00:00
FILE "Last Exit - 03 - So Small, So Weak, This Bloody Sweat Of Loving.wav" WAVE
TRACK 03 AUDIO
TITLE "So Small, So Weak, This Bloody Sweat Of Loving"
PERFORMER "Last Exit"
INDEX 01 00:00:00
FILE "Last Exit - 04 - Headfirst Into The Flames.wav" WAVE
TRACK 04 AUDIO
TITLE "Headfirst Into The Flames"
PERFORMER "Last Exit"
INDEX 01 00:00:00
FILE "Last Exit - 05 - A Knight Of Ghosts And Shadows.wav" WAVE
TRACK 05 AUDIO
TITLE "A Knight Of Ghosts And Shadows"
PERFORMER "Last Exit"
INDEX 01 00:00:00
FILE "Last Exit - 06 - Jesus! What Gorgeous Monkeys We Are.wav" WAVE
TRACK 06 AUDIO
TITLE "Jesus! What Gorgeous Monkeys We Are"
PERFORMER "Last Exit"
INDEX 01 00:00:00
TRACK 07 AUDIO
TITLE "Hanged Man Are Always Naked"
PERFORMER "Last Exit"
INDEX 00 10:52:10
FILE "Last Exit - 07 - Hanged Man Are Always Naked.wav" WAVE
INDEX 01 00:00:00
FILE "Last Exit - 08 - No One Knows Anything.wav" WAVE
TRACK 08 AUDIO
TITLE "No One Knows Anything"
PERFORMER "Last Exit"
INDEX 01 00:00:00
FILE "Last Exit - 09 - I Must Confess I'm A Cannibal.wav" WAVE
TRACK 09 AUDIO
TITLE "I Must Confess I'm A Cannibal"
PERFORMER "Last Exit"
INDEX 01 00:00:00
 
Лог проверки качества
AUDIOCHECKER v2.0 beta (build 457) - by Dester - opdester@freemail.hu
~~~~~~~~~~~~~~~~~~~~~~~~~~~~~~~~~~
-=== НЕ РЕДАКТИРУЙТЕ ЭТОТ ФАЙЛ! ===-
Путь: ...\1989-Headfirst Into the Flames. Live in Europe [1993, MuWorks Records MUW 1013 CD]
1 -=- Last Exit - 01 - Lizard Eyes.flac -=- CDDA (100%)
2 -=- Last Exit - 02 - Don't Be A Cry Baby Whatever You Do.flac -=- CDDA (100%)
3 -=- Last Exit - 03 - So Small, So Weak, This Bloody Sweat Of Loving.flac -=- CDDA (100%)
4 -=- Last Exit - 04 - Headfirst Into The Flames.flac -=- CDDA (100%)
5 -=- Last Exit - 05 - A Knight Of Ghosts And Shadows.flac -=- CDDA (100%)
6 -=- Last Exit - 06 - Jesus! What Gorgeous Monkeys We Are.flac -=- CDDA (100%)
7 -=- Last Exit - 07 - Hanged Man Are Always Naked.flac -=- CDDA (100%)
8 -=- Last Exit - 08 - No One Knows Anything.flac -=- CDDA (100%)
9 -=- Last Exit - 09 - I Must Confess I'm A Cannibal.flac -=- CDDA (100%)
Сводка 100,00% CDDA
23601828
Доп. информация: Recorded in Stockholm, Sweden and Munich, Germany in 1989
 
Об альбоме (сборнике)
Never let it be said that Last Exit didn't take advantage of recording their live shows or playing in front of adoring Europeans. With cover art and song titles courtesy of the late avant-garde British poet Kenneth Patchen, Headfirst kicks off with the brain fry of "Lizard Eyes" only to launch into a Sharrock improv called "Don't Be a Cry Baby, Whatever You Do." Brotzmann blows wild and free here, and his squeal and blurt provides a great counterpoint to the rumble of the rhythms and the pummeling sonic overload of Sharrock's guitar. Another piece of blurt that will make you head spin.
http://allmusic.com/cg/amg.dll?p=amg&sql=10:09frxq8hldse
 
Состав
Bass – Bill Laswell
Drums – Shannon Jackson
Guitar – Sonny Sharrock
Reeds – Peter Brotzmann
Any questions -> support@pro-jazz.com. По всем вопросам пишите -> support@pro-jazz.com
19:37
201
Нет комментариев. Ваш будет первым!