Вы используете незарегистрированную версию компонента "Вкладки"!

Поиск

(Modern Creative) B3+ (John Clark, Franz Hackl, David Taylor) - Uncommon Sense - 2008 [col legno WWE 1CD 30001], FLAC (tracks+.cue), lossless

(Modern Creative) B3+ (John Clark, Franz Hackl, David Taylor) - Uncommon Sense - 2008 [col legno WWE 1CD 30001], FLAC (tracks+.cue), lossless
Треклист:
B³+ - Uncommon Sense
Жанр: Modern Creative
Страна-производитель диска: Austria
Год издания: 2008
Издатель (лейбл): col legno
Номер по каталогу: WWE 1CD 30001
Аудиокодек: FLAC (*.flac)
Тип рипа: tracks+.cue
Битрейт аудио: lossless
Продолжительность: 01:06:20
Источник (релизер): собственный рип с оригинального Audio CD
Наличие сканов в содержимом раздачи: да
Треклист:
01. Keep Cool Said The Stool (05:55)
02. Something Around Con Alma (04:11)
03. Alfie (03:37)
04. B³+ Theme/Bad Attitude (07:10)
05. Dark Rhapsody (03:57)
06. Il Suono Delle Ragazze Che Ridono (04:51)
07. Double Diploid (07:01)
08. Counterfeiters (07:44)
09. Minor and Major/Meditation (03:56)
10. Hoppy Daze Is Here Again (06:15)
11. Polka Face (07:52)
12. Sonata For Horn, Trumpet And Trombone (01:58)
13. Cwm Rhondda (01:29)
Доп. информация:
Musicians:
John Clark - french horn
Franz Hackl - trumpets, flügelhorn
David Taylor - bass trombone
Recording locations Musikinstrumente Werkstatt, Schwarz/Austria; Hacklmusic Studio NYC; SUNY Purchase, College of Music, New York State;
Inntöne Festival/Austria; Triad NYC; Dackl Studio NYC; Proberaum MK Diersbach
Recording Dates June 2003, May 2005, October 2006, January and March 2008
© 2008 col legno Beteiligungs- und Produktion GmbH
B³+ myspace.com
B³+ sweetplantain.com
B³+ - Uncommon Sense col-legno.com
B³+ - Uncommon Sense allmusic.com
Franz Hackl Official Site
David Taylor Official Site
John Clark from Wikipedia, the free encyclopedia
 
... photo ...

 
Album Info
This is: brass to the power of three, and a lot more besides. John Clark, Dave Taylor and Franz Hackl on French horn, trumpet and bass trombone are not just a brass trio but create a whole cosmos of sounds, styles and techniques. In their musical actions and reactions, each of the three is always also each of the other two, with the voices merging into complex moods and styles. On this album the trio reveal their sense of humor, and a moment later become absorbed in hymnic devotion. Big-band gestures are mentally divided by three; free jazz resounds with the spirit of Bach and Bartók, folk music from Welsh hills and Tyrolean mountaintops merges with the rhythms and chord sequences. Three highly original musicians, as competent in their beautiful legatos as in their leaps over jagged reefs of sound.
~ col-legno.com
 
EAC / evidence
 
EAC extraction logfile from 6. May 2012, 16:28
Exact Audio Copy V1.0 beta 3 from 29. August 2011
EAC extraction logfile from 6. May 2012, 16:28
B3+ / Uncommon Sense
Used drive : Optiarc DVD RW AD-7260S Adapter: 2 ID: 0
Read mode : Secure
Utilize accurate stream : Yes
Defeat audio cache : Yes
Make use of C2 pointers : No
Read offset correction : 48
Overread into Lead-In and Lead-Out : No
Fill up missing offset samples with silence : Yes
Delete leading and trailing silent blocks : No
Null samples used in CRC calculations : Yes
Used interface : Native Win32 interface for Win NT & 2000
Gap handling : Appended to previous track
Used output format : User Defined Encoder
Selected bitrate : 128 kBit/s
Quality : High
Add ID3 tag : No
Command line compressor : D:\Program Files\Exact Audio Copy 1.0 beta3\Flac\flac.exe
Additional command line options : -V -8 -T "Genre=%genre%" -T "Artist=%artist%" -T "Title=%title%" -T "Album=%albumtitle%" -T "Date=%year%" -T "Tracknumber=%tracknr%" -T "Comment=%comment%" %source%
TOC of the extracted CD
Track | Start | Length | Start sector | End sector
---------------------------------------------------------
1 | 0:00.00 | 5:56.15 | 0 | 26714
2 | 5:56.15 | 4:12.04 | 26715 | 45618
3 | 10:08.19 | 3:38.66 | 45619 | 62034
4 | 13:47.10 | 7:11.09 | 62035 | 94368
5 | 20:58.19 | 3:58.12 | 94369 | 112230
6 | 24:56.31 | 4:53.10 | 112231 | 134215
7 | 29:49.41 | 7:03.03 | 134216 | 165943
8 | 36:52.44 | 7:47.06 | 165944 | 200974
9 | 44:39.50 | 3:59.66 | 200975 | 218965
10 | 48:39.41 | 6:17.56 | 218966 | 247296
11 | 54:57.22 | 7:53.34 | 247297 | 282805
12 | 62:50.56 | 1:58.14 | 282806 | 291669
13 | 64:48.70 | 1:29.36 | 291670 | 298380
Track 1
Filename L:\rip by readab\B3+ - Uncommon Sense (2008)\01 - Keep Cool Said The Stool.wav
Pre-gap length 0:00:02.00
Peak level 97.4 %
Extraction speed 2.5 X
Track quality 99.9 %
Test CRC 0569C88C
Copy CRC 0569C88C
Track not present in AccurateRip database
Copy OK
Track 2
Filename L:\rip by readab\B3+ - Uncommon Sense (2008)\02 - Something Around Con Alma.wav
Pre-gap length 0:00:01.08
Peak level 93.0 %
Extraction speed 3.0 X
Track quality 100.0 %
Test CRC DA23F1F8
Copy CRC DA23F1F8
Track not present in AccurateRip database
Copy OK
Track 3
Filename L:\rip by readab\B3+ - Uncommon Sense (2008)\03 - Alfie.wav
Pre-gap length 0:00:01.09
Peak level 99.9 %
Extraction speed 3.1 X
Track quality 100.0 %
Test CRC 961B75AE
Copy CRC 961B75AE
Track not present in AccurateRip database
Copy OK
Track 4
Filename L:\rip by readab\B3+ - Uncommon Sense (2008)\04 - B3+ Theme - Bad Attitude.wav
Pre-gap length 0:00:01.72
Peak level 100.0 %
Extraction speed 3.6 X
Track quality 100.0 %
Test CRC 6AD31231
Copy CRC 6AD31231
Track not present in AccurateRip database
Copy OK
Track 5
Filename L:\rip by readab\B3+ - Uncommon Sense (2008)\05 - Dark Rhapsody.wav
Pre-gap length 0:00:01.02
Peak level 85.3 %
Extraction speed 3.6 X
Track quality 100.0 %
Test CRC 4D076DF3
Copy CRC 4D076DF3
Track not present in AccurateRip database
Copy OK
Track 6
Filename L:\rip by readab\B3+ - Uncommon Sense (2008)\06 - Il Suono Delle Ragazze Che Ridono.wav
Pre-gap length 0:00:01.04
Peak level 96.7 %
Extraction speed 3.5 X
Track quality 99.9 %
Test CRC F2ED4B5B
Copy CRC F2ED4B5B
Track not present in AccurateRip database
Copy OK
Track 7
Filename L:\rip by readab\B3+ - Uncommon Sense (2008)\07 - Double Diploid.wav
Pre-gap length 0:00:01.63
Peak level 99.9 %
Extraction speed 4.3 X
Track quality 100.0 %
Test CRC E14C3AFA
Copy CRC E14C3AFA
Track not present in AccurateRip database
Copy OK
Track 8
Filename L:\rip by readab\B3+ - Uncommon Sense (2008)\08 - Counterfeiters.wav
Pre-gap length 0:00:01.58
Peak level 85.7 %
Extraction speed 4.3 X
Track quality 99.9 %
Test CRC D054657D
Copy CRC D054657D
Track not present in AccurateRip database
Copy OK
Track 9
Filename L:\rip by readab\B3+ - Uncommon Sense (2008)\09 - Minor and Major - Meditation.wav
Pre-gap length 0:00:02.72
Peak level 93.9 %
Extraction speed 4.5 X
Track quality 100.0 %
Test CRC E49D297F
Copy CRC E49D297F
Track not present in AccurateRip database
Copy OK
Track 10
Filename L:\rip by readab\B3+ - Uncommon Sense (2008)\10 - Hoppy Daze Is Here Again.wav
Pre-gap length 0:00:03.70
Peak level 79.1 %
Extraction speed 4.9 X
Track quality 100.0 %
Test CRC 27E4D73D
Copy CRC 27E4D73D
Track not present in AccurateRip database
Copy OK
Track 11
Filename L:\rip by readab\B3+ - Uncommon Sense (2008)\11 - Polka Face.wav
Pre-gap length 0:00:02.43
Peak level 99.4 %
Extraction speed 5.3 X
Track quality 100.0 %
Test CRC F13282CE
Copy CRC F13282CE
Track not present in AccurateRip database
Copy OK
Track 12
Filename L:\rip by readab\B3+ - Uncommon Sense (2008)\12 - Sonata For Horn, Trumpet And Trombone.wav
Pre-gap length 0:00:01.11
Peak level 84.5 %
Extraction speed 3.6 X
Track quality 99.9 %
Test CRC B24402B7
Copy CRC B24402B7
Track not present in AccurateRip database
Copy OK
Track 13
Filename L:\rip by readab\B3+ - Uncommon Sense (2008)\13 - Cwm Rhondda.wav
Peak level 66.4 %
Extraction speed 4.2 X
Track quality 100.0 %
Test CRC C988AE91
Copy CRC C988AE91
Track not present in AccurateRip database
Copy OK
None of the tracks are present in the AccurateRip database
No errors occurred
End of status report
==== Log checksum 1309630187A8742992BD7E1BBE928A596430BB0100305E9A157669A93F521991 ====
 
Содержание индексной карты (.CUE)
REM GENRE Jazz
REM DATE 2008
REM DISCID C30F8A0D
REM COMMENT "ExactAudioCopy v1.0b3"
CATALOG 9120031340294
PERFORMER "B3+"
TITLE "Uncommon Sense"
FILE "01 - Keep Cool Said The Stool.wav" WAVE
TRACK 01 AUDIO
TITLE "Keep Cool Said The Stool"
PERFORMER "B3+"
ISRC DEB160701101
FLAGS DCP
INDEX 01 00:00:00
TRACK 02 AUDIO
TITLE "Something Around Con Alma"
PERFORMER "B3+"
ISRC DEB160701102
FLAGS DCP
INDEX 00 05:55:07
FILE "02 - Something Around Con Alma.wav" WAVE
INDEX 01 00:00:00
TRACK 03 AUDIO
TITLE "Alfie"
PERFORMER "B3+"
ISRC DEB160701103
FLAGS DCP
INDEX 00 04:10:70
FILE "03 - Alfie.wav" WAVE
INDEX 01 00:00:00
TRACK 04 AUDIO
TITLE "B3+ Theme - Bad Attitude"
PERFORMER "B3+"
ISRC DEB160701104
FLAGS DCP
INDEX 00 03:36:69
FILE "04 - B3+ Theme - Bad Attitude.wav" WAVE
INDEX 01 00:00:00
TRACK 05 AUDIO
TITLE "Dark Rhapsody"
PERFORMER "B3+"
ISRC DEB160701105
FLAGS DCP
INDEX 00 07:10:07
FILE "05 - Dark Rhapsody.wav" WAVE
INDEX 01 00:00:00
TRACK 06 AUDIO
TITLE "Il Suono Delle Ragazze Che Ridono"
PERFORMER "B3+"
ISRC DEB160701106
FLAGS DCP
INDEX 00 03:57:08
FILE "06 - Il Suono Delle Ragazze Che Ridono.wav" WAVE
INDEX 01 00:00:00
TRACK 07 AUDIO
TITLE "Double Diploid"
PERFORMER "B3+"
ISRC DEB160701107
FLAGS DCP
INDEX 00 04:51:22
FILE "07 - Double Diploid.wav" WAVE
INDEX 01 00:00:00
TRACK 08 AUDIO
TITLE "Counterfeiters"
PERFORMER "B3+"
ISRC DEB160701108
FLAGS DCP
INDEX 00 07:01:20
FILE "08 - Counterfeiters.wav" WAVE
INDEX 01 00:00:00
TRACK 09 AUDIO
TITLE "Minor and Major - Meditation"
PERFORMER "B3+"
ISRC DEB160701109
FLAGS DCP
INDEX 00 07:44:09
FILE "09 - Minor and Major - Meditation.wav" WAVE
INDEX 01 00:00:00
TRACK 10 AUDIO
TITLE "Hoppy Daze Is Here Again"
PERFORMER "B3+"
ISRC DEB160701110
FLAGS DCP
INDEX 00 03:55:71
FILE "10 - Hoppy Daze Is Here Again.wav" WAVE
INDEX 01 00:00:00
TRACK 11 AUDIO
TITLE "Polka Face"
PERFORMER "B3+"
ISRC DEB160701111
FLAGS DCP
INDEX 00 06:15:13
FILE "11 - Polka Face.wav" WAVE
INDEX 01 00:00:00
TRACK 12 AUDIO
TITLE "Sonata For Horn, Trumpet And Trombone"
PERFORMER "B3+"
ISRC DEB160701112
FLAGS DCP
INDEX 00 07:52:23
FILE "12 - Sonata For Horn, Trumpet And Trombone.wav" WAVE
INDEX 01 00:00:00
FILE "13 - Cwm Rhondda.wav" WAVE
TRACK 13 AUDIO
TITLE "Cwm Rhondda"
PERFORMER "B3+"
ISRC DEB160701113
FLAGS DCP
INDEX 01 00:00:00
Any questions -> support@pro-jazz.com. По всем вопросам пишите -> support@pro-jazz.com
00:39
110
Нет комментариев. Ваш будет первым!