Вы используете незарегистрированную версию компонента "Вкладки"!

Поиск

(Free Improvisation) Georg Graewe, Ernst Reijseger, Gerry Hemingway - Sonic Fiction - 2007, FLAC (image+.cue), lossless

Треклист:
Georg Graewe, Ernst Reijseger, Gerry Hemingway / Sonic Fiction
Жанр: Free Improvisation
Страна-производитель диска: Switzerland
Год издания: 2007
Издатель (лейбл): hatOLOGY
Номер по каталогу: 638
Аудиокодек: FLAC (*.flac)
Тип рипа: image+.cue
Битрейт аудио: lossless
Продолжительность: 68:29
Источник (релизер): cd
Наличие сканов в содержимом раздачи: нет
Треклист:
1 Alien Corn I 8:26
2 Alien Corn II 3:00
3 Alien Corn III 6:00
4 Fibulation 7:20
5 Aspects Of Somnabulism / Demure Scuttle 5:58
6 Aspects Of Somnabulism / Sleewaltzer 11:46
7 Fangled Talk 19:40
8 Masting 6:27
 
Лог создания рипа
Exact Audio Copy V1.0 beta 2 from 29. April 2011
EAC extraction logfile from 7. May 2012, 11:18
Georg Graewe, Ernst Reijseger, Gerry Hemingway / Sonic Fiction
Used drive : Optiarc DVD RW AD-7170A Adapter: 0 ID: 0
Read mode : Secure
Utilize accurate stream : Yes
Defeat audio cache : Yes
Make use of C2 pointers : No
Read offset correction : 48
Overread into Lead-In and Lead-Out : No
Fill up missing offset samples with silence : Yes
Delete leading and trailing silent blocks : No
Null samples used in CRC calculations : Yes
Used interface : Native Win32 interface for Win NT & 2000
Used output format : User Defined Encoder
Selected bitrate : 320 kBit/s
Quality : High
Add ID3 tag : No
Command line compressor : C:\Program Files\Exact Audio Copy\Flac\flac.exe
Additional command line options : -V -8 -T "Date=%year%" -T "Genre=%genre%" %source%
TOC of the extracted CD
Track | Start | Length | Start sector | End sector
---------------------------------------------------------
1 | 0:00.00 | 8:28.74 | 0 | 38173
2 | 8:28.74 | 2:58.12 | 38174 | 51535
3 | 11:27.11 | 6:04.53 | 51536 | 78888
4 | 17:31.64 | 7:22.02 | 78889 | 112040
5 | 24:53.66 | 6:00.23 | 112041 | 139063
6 | 30:54.14 | 11:47.70 | 139064 | 192158
7 | 42:42.09 | 19:42.05 | 192159 | 280813
8 | 62:24.14 | 6:05.58 | 280814 | 308246
Range status and errors
Selected range
Filename C:\EAC\Downloads\Georg Graewe, Ernst Reijseger, Gerry Hemingway - Sonic Fiction.wav
Peak level 98.9 %
Extraction speed 2.1 X
Range quality 100.0 %
Test CRC 8347281B
Copy CRC 8347281B
Copy OK
No errors occurred
AccurateRip summary
Track 1 accurately ripped (confidence 2) [BEEAE0D1] (AR v1)
Track 2 accurately ripped (confidence 2) [191C41B4] (AR v1)
Track 3 accurately ripped (confidence 2) [918E51D9] (AR v1)
Track 4 accurately ripped (confidence 2) [527DBD06] (AR v1)
Track 5 accurately ripped (confidence 2) [C78F2097] (AR v1)
Track 6 accurately ripped (confidence 2) [01E89971] (AR v1)
Track 7 accurately ripped (confidence 2) [321D5791] (AR v1)
Track 8 accurately ripped (confidence 2) [D5CBE13C] (AR v1)
All tracks accurately ripped
End of status report
==== Log checksum 47B4708DE0F58BDCC25EFAB5B471B1BCC37B1F83AD4EF0989F14794C6D479E5D ====
 
Содержание индексной карты (.CUE)
REM GENRE Jazz
REM DATE 2007
REM DISCID 74100D08
REM COMMENT "ExactAudioCopy v1.0b2"
PERFORMER "Georg Graewe, Ernst Reijseger, Gerry Hemingway"
TITLE "Sonic Fiction"
FILE "Georg Graewe, Ernst Reijseger, Gerry Hemingway - Sonic Fiction.flac" WAVE
TRACK 01 AUDIO
TITLE "Alien Corn I"
PERFORMER "Georg Graewe, Ernst Reijseger, Gerry Hemingway"
ISRC CH1310600792
INDEX 01 00:00:00
TRACK 02 AUDIO
TITLE "Alien Corn II"
PERFORMER "Georg Graewe, Ernst Reijseger, Gerry Hemingway"
ISRC CH1310600793
INDEX 01 08:28:74
TRACK 03 AUDIO
TITLE "Alien Corn III"
PERFORMER "Georg Graewe, Ernst Reijseger, Gerry Hemingway"
ISRC CH1310600794
INDEX 01 11:27:11
TRACK 04 AUDIO
TITLE "Fibulation"
PERFORMER "Georg Graewe, Ernst Reijseger, Gerry Hemingway"
ISRC CH1310600795
INDEX 01 17:31:64
TRACK 05 AUDIO
TITLE "Aspects Of Somnabulism / Demure Scuttle"
PERFORMER "Georg Graewe, Ernst Reijseger, Gerry Hemingway"
ISRC CH1310600796
INDEX 01 24:53:66
TRACK 06 AUDIO
TITLE "Aspects Of Somnabulism / Sleewaltzer"
PERFORMER "Georg Graewe, Ernst Reijseger, Gerry Hemingway"
ISRC CH1310600797
INDEX 01 30:54:14
TRACK 07 AUDIO
TITLE "Fangled Talk"
PERFORMER "Georg Graewe, Ernst Reijseger, Gerry Hemingway"
ISRC CH1310600798
INDEX 01 42:42:09
TRACK 08 AUDIO
TITLE "Masting"
PERFORMER "Georg Graewe, Ernst Reijseger, Gerry Hemingway"
ISRC CH1310600799
INDEX 01 62:24:14
Доп. информация: Recorded live March 14, 1989 at Museum Bochum, Germany for WDR Cologne.
 
Состав
Cello – Ernst Reijseger
Percussion – Gerry Hemingway
Piano – Georg Graewe
Any questions -> support@pro-jazz.com. По всем вопросам пишите -> support@pro-jazz.com
00:40
103
Нет комментариев. Ваш будет первым!