Вы используете незарегистрированную версию компонента "Вкладки"!

Поиск

(Free Improvisation) Louis Moholo, Evan Parker, Phule Pheto, Gibo Pheto, Barry Guy Quintet - Bush Fire - 1997, FLAC (image+.cue), lossless

Треклист:
Louis Moholo, Evan Parker, Phule Pheto, Gibo Pheto, Barry Guy Quintet / Bush Fire
Жанр: Free Improvisation
Страна-производитель диска: UK
Год издания: 1997
Издатель (лейбл): Ogun Recording Ltd.
Номер по каталогу: OGCD 009
Аудиокодек: FLAC (*.flac)
Тип рипа: image+.cue
Битрейт аудио: lossless
Продолжительность: 78:48
Источник (релизер): cd
Наличие сканов в содержимом раздачи: нет
Треклист:
1 Bush Fire 13:24
2 For Chisa 7:12
3 South Afrika Is Free - Ok? 11:48
4 Baobab 9:25
5 Mark Of Respect 4:18
6 Back Beat 6:26
7 Sticks 4:52
8 Coincidence 5:03
9 Flaming July 8:15
10 For Mpumi 8:03
 
Лог создания рипа
Exact Audio Copy V1.0 beta 2 from 29. April 2011
EAC extraction logfile from 6. May 2012, 15:03
Evan Parker, Louis Moholo, Phule Pheto, Gibo Pheto & Barry Guy Quintet / Bush Fire
Used drive : Optiarc DVD RW AD-7170A Adapter: 0 ID: 0
Read mode : Secure
Utilize accurate stream : Yes
Defeat audio cache : Yes
Make use of C2 pointers : No
Read offset correction : 48
Overread into Lead-In and Lead-Out : No
Fill up missing offset samples with silence : Yes
Delete leading and trailing silent blocks : No
Null samples used in CRC calculations : Yes
Used interface : Native Win32 interface for Win NT & 2000
Used output format : User Defined Encoder
Selected bitrate : 320 kBit/s
Quality : High
Add ID3 tag : No
Command line compressor : C:\Program Files\Exact Audio Copy\Flac\flac.exe
Additional command line options : -V -8 -T "Date=%year%" -T "Genre=%genre%" %source%
TOC of the extracted CD
Track | Start | Length | Start sector | End sector
---------------------------------------------------------
1 | 0:00.00 | 13:27.74 | 0 | 60598
2 | 13:27.74 | 7:12.16 | 60599 | 93014
3 | 20:40.15 | 11:51.11 | 93015 | 146350
4 | 32:31.26 | 9:17.41 | 146351 | 188166
5 | 41:48.67 | 4:26.43 | 188167 | 208159
6 | 46:15.35 | 6:26.13 | 208160 | 237122
7 | 52:41.48 | 4:52.19 | 237123 | 259041
8 | 57:33.67 | 5:00.55 | 259042 | 281596
9 | 62:34.47 | 8:14.29 | 281597 | 318675
10 | 70:49.01 | 7:59.24 | 318676 | 354624
Range status and errors
Selected range
Filename C:\EAC\Downloads\Evan Parker, Louis Moholo, Phule Pheto, Gibo Pheto & Barry Guy Quintet - Bush Fire.wav
Peak level 99.9 %
Extraction speed 2.3 X
Range quality 99.9 %
Test CRC 226F6DE2
Copy CRC 226F6DE2
Copy OK
No errors occurred
AccurateRip summary
Track 1 not present in database
Track 2 not present in database
Track 3 not present in database
Track 4 not present in database
Track 5 not present in database
Track 6 not present in database
Track 7 not present in database
Track 8 not present in database
Track 9 not present in database
Track 10 not present in database
None of the tracks are present in the AccurateRip database
End of status report
==== Log checksum 458E7B516AA47A4ABB238DC4685B6F19B68D9A33E529A17273C0D4321D0D2A1C ====
 
Содержание индексной карты (.CUE)
REM GENRE Jazz
REM DATE 1997
REM DISCID 8C12780A
REM COMMENT "ExactAudioCopy v1.0b2"
PERFORMER "Evan Parker, Louis Moholo, Phule Pheto, Gibo Pheto & Barry Guy Quintet"
TITLE "Bush Fire"
FILE "Evan Parker, Louis Moholo, Phule Pheto, Gibo Pheto & Barry Guy Quintet - Bush Fire.flac" WAVE
TRACK 01 AUDIO
TITLE "Bush Fire"
PERFORMER "Evan Parker, Louis Moholo, Phule Pheto, Gibo Pheto & Barry Guy Quintet"
INDEX 01 00:00:00
TRACK 02 AUDIO
TITLE "For Chisa"
PERFORMER "Evan Parker, Louis Moholo, Phule Pheto, Gibo Pheto & Barry Guy Quintet"
INDEX 00 13:25:08
INDEX 01 13:27:74
TRACK 03 AUDIO
TITLE "South Afrika Is Free - Ok?"
PERFORMER "Evan Parker, Louis Moholo, Phule Pheto, Gibo Pheto & Barry Guy Quintet"
INDEX 00 20:35:18
INDEX 01 20:40:15
TRACK 04 AUDIO
TITLE "Baobab"
PERFORMER "Evan Parker, Louis Moholo, Phule Pheto, Gibo Pheto & Barry Guy Quintet"
INDEX 00 32:22:67
INDEX 01 32:31:26
TRACK 05 AUDIO
TITLE "Mark Of Respect"
PERFORMER "Evan Parker, Louis Moholo, Phule Pheto, Gibo Pheto & Barry Guy Quintet"
INDEX 01 41:48:67
TRACK 06 AUDIO
TITLE "Back Beat"
PERFORMER "Evan Parker, Louis Moholo, Phule Pheto, Gibo Pheto & Barry Guy Quintet"
INDEX 00 46:08:61
INDEX 01 46:15:35
TRACK 07 AUDIO
TITLE "Sticks"
PERFORMER "Evan Parker, Louis Moholo, Phule Pheto, Gibo Pheto & Barry Guy Quintet"
INDEX 00 52:36:25
INDEX 01 52:41:48
TRACK 08 AUDIO
TITLE "Coincidence"
PERFORMER "Evan Parker, Louis Moholo, Phule Pheto, Gibo Pheto & Barry Guy Quintet"
INDEX 00 57:30:60
INDEX 01 57:33:67
TRACK 09 AUDIO
TITLE "Flaming July"
PERFORMER "Evan Parker, Louis Moholo, Phule Pheto, Gibo Pheto & Barry Guy Quintet"
INDEX 00 62:31:38
INDEX 01 62:34:47
TRACK 10 AUDIO
TITLE "For Mpumi"
PERFORMER "Evan Parker, Louis Moholo, Phule Pheto, Gibo Pheto & Barry Guy Quintet"
INDEX 00 70:46:70
INDEX 01 70:49:01
Доп. информация: Recorded July 1995 at Gateway Studio, London
 
Об альбоме (сборнике)
While Phule and Gibo Pheto may not be household words among avant jazz fans, the other three members of this ensemble should be well-known to all. The mere presence of drummer Louis Moholo, saxophonist Evan Parker, and bassist Barry Guy should and do guarantee a recording of very high quality. Add to that Gibo Pheto's highly individualized style of bass playing (that's right, two bassists) and the wooly, explosive pianism of Phule Pheto and you have a quintet worth raving about. Bush Fire is worth raving about for its execution certainly, but more important, it is the defined and near-symbiotic musical relationship between Moholo and Parker -- which drives these proceedings to their insanely feverish pitch -- that is perhaps most astonishing. Indeed, on each of the ten selections here, it is difficult to tell whom is leading whom, and the identities of the two players seem to become liquid and switch. For Parker's cascading multi-phonics that are at the heart of the title track, "Baobab," and "For Chisa," Moholo rolls through a knotty attack of snare accents and rim shots, only to be followed by Parker screaming a series of arpeggios in return. When Moholo rides the crash cymbal in an 11/18 time signature for a full three minutes on "Flaming July," Parker courses to the top of his ostinato speed with a phrase that is so gnarly it accents the rhythm of the drum. Meanwhile the rest of the band responds, not in kind, but in extremis, trying to keep the dynamics fluctuating and liquid, adding color and space wherever possible and solo as well. It's a breathtaking ride through the outer edges of free jazz, but it's one so musical, so lyrically brilliant, it could never be repeated. Thank the heavens for this recording.
 
Состав
Bass (left) – Gibo Pheto
Bass, Bass Piccolo (right) – Barry Guy
Drums – Louis Moholo
Piano – Pule Pheto
Tenor Saxophone, Soprano Saxophone – Evan Parker
Any questions -> support@pro-jazz.com. По всем вопросам пишите -> support@pro-jazz.com
00:38
143
Нет комментариев. Ваш будет первым!