Вы используете незарегистрированную версию компонента "Вкладки"!

Поиск

(Modern Creative / Avant-Garde) Mark Helias - Desert Blue - 1989, FLAC (image+.cue), lossless

(Modern Creative / Avant-Garde) Mark Helias - Desert Blue - 1989, FLAC (image+.cue), lossless
Треклист:
Mark Helias - Desert Blue
Жанр: Modern Creative / Avant-Garde
Год выпуска диска: 1989
Производитель диска: Germany (Enja R2-79631)
Аудио кодек: FLAC
Тип рипа: image+.cue
Битрейт аудио: lossless
Продолжительность: 51:12
Mark Helias: double bass, Steinberger bass guitar
Pheeroan AkLaff: drums
Ray Anderson: trombone
Anthony Davis: piano, synthesizer
Marty Ehrlich: alto and soprano saxophones, clarinet, bass clarinet
Jerome Harris: guitar
Herb Robertson: trumpet, cornet
1. Police Story Blues
2. Skin
3. Fourth World
4. Albert
5. Desert Blue
6. Pitchfield Blues
7. Parousia
8. Rumination
9. Morphologarhythm

 
Review
Helias’ latest marks a decisive shift for the bassist. Moving from more overtly avant conceptual concerns he here pulls in the reins a bit and seems to pay tribute to Mingus. The themes and arrangements (the Slickaphonic funk of “Skin” and the closer notwithstanding have a palpable “beneath the underdog” flavor. Blues, swing, and edge of classicism and a measured dose of freedom are the primary ingredients, though the bassist opts for a slightly less raucous ambiance overall. Ehrlich and Robertson set each other off nicely given the former’s subtly impassioned yet controlled lyricism and the latter’s brilliant quilt of backward glancing forward pushing (Louis Armstrong to Bill Dixon) mannerisms. The aforementioned funk cuts have their pleasures as well. Anderson takes a buzzing bellowing solo on “Skin” while the closer provides compositional interest through Helias’ knowing use of intersecting neo-minimalist lines. ~ Milo Fine
 
EAC Report
Exact Audio Copy V0.99 prebeta 5 from 4. May 2009
EAC extraction logfile from 11. January 2010, 21:55
Mark Helias / Desert Blue
Used drive : hp DVD-RAM GH40L Adapter: 0 ID: 1
Read mode : Secure
Utilize accurate stream : Yes
Defeat audio cache : Yes
Make use of C2 pointers : No
Read offset correction : 667
Overread into Lead-In and Lead-Out : No
Fill up missing offset samples with silence : Yes
Delete leading and trailing silent blocks : No
Null samples used in CRC calculations : Yes
Used interface : Installed external ASPI interface
Used output format : User Defined Encoder
Selected bitrate : 1024 kBit/s
Quality : High
Add ID3 tag : No
Command line compressor : C:\Program Files\Exact Audio Copy\Flac\flac.exe
Additional command line options : -6 -V -T "ARTIST=%a" -T "TITLE=%t" -T "ALBUM=%g" -T "DATE=%y" -T "TRACKNUMBER=%n" -T "GENRE=%m" -T "COMMENT=EAC FLAC -6" %s
TOC of the extracted CD
Track | Start | Length | Start sector | End sector
---------------------------------------------------------
1 | 0:00.37 | 6:17.00 | 37 | 28311
2 | 6:17.37 | 5:04.38 | 28312 | 51149
3 | 11:22.00 | 6:19.35 | 51150 | 79609
4 | 17:41.35 | 7:18.02 | 79610 | 112461
5 | 24:59.37 | 2:17.00 | 112462 | 122736
6 | 27:16.37 | 6:11.73 | 122737 | 150634
7 | 33:28.35 | 7:39.05 | 150635 | 185064
8 | 41:07.40 | 4:12.72 | 185065 | 204036
9 | 45:20.37 | 5:51.10 | 204037 | 230371
Range status and errors
Selected range
Filename C:\Users\Igor\Music\eac\Mark Helias - Desert Blue.wav
Peak level 100.0 %
Range quality 100.0 %
Test CRC C1DE28B2
Copy CRC C1DE28B2
Copy OK
No errors occurred
AccurateRip summary
Track 1 cannot be verified as accurate (confidence 1) [BD3F724F], AccurateRip returned [DACF4A6F]
Track 2 cannot be verified as accurate (confidence 1) [77ECBC21], AccurateRip returned [C86B4EC1]
Track 3 cannot be verified as accurate (confidence 1) [44D4A9C7], AccurateRip returned [B121E697]
Track 4 cannot be verified as accurate (confidence 1) [981EF91B], AccurateRip returned [D912D693]
Track 5 cannot be verified as accurate (confidence 1) [830DA1A4], AccurateRip returned [DFA3CA64]
Track 6 cannot be verified as accurate (confidence 1) [2A4C6CE4], AccurateRip returned [50FC1AB4]
Track 7 cannot be verified as accurate (confidence 1) [7F7CE4ED], AccurateRip returned [A542163D]
Track 8 cannot be verified as accurate (confidence 1) [6344521C], AccurateRip returned [CD42F1F4]
Track 9 cannot be verified as accurate (confidence 1) [419897E6], AccurateRip returned [A545107E]
No tracks could be verified as accurate
You may have a different pressing from the one(s) in the database
End of status report
Any questions -> support@pro-jazz.com. По всем вопросам пишите -> support@pro-jazz.com
18:21
127
Нет комментариев. Ваш будет первым!