Вы используете незарегистрированную версию компонента "Вкладки"!

Поиск

(Contemporary Jazz, Free Improvisation) Greetje Bijma - Barefoot - 1993, APE (image+.cue), lossless

(Contemporary Jazz, Free Improvisation) Greetje Bijma - Barefoot - 1993, APE (image+.cue), lossless
Треклист:
Greetje Bijma - Barefoot
Жанр: Contemporary Jazz, Free Improvisation
Год выпуска диска: 1993
Производитель диска: enja, ORDER NO. ENJ-8038 2
Аудио кодек: APE
Тип рипа: image+.cue
Битрейт аудио: lossless
Продолжительность: 45'04
Трэклист:
1. Barefoot 05:59
2. Bosnia 07:35
3. Painter At Work 02:30
4. As I Drive By 04:29
5. Glazed Frost 01:51
6. Lonely Walk 03:39
7. Katsjima 02:06
8. Sings With Strings 01:29
9. Duck Pond 05:51
10. Guess Where It 's Coming From 03:43
11. Vortex 05:52
Доп. информация:
Greetje Bijma vocal
Marilyn Crispell p
Mark Dresser b
 
EAC-LOG
Exact Audio Copy V0.99 prebeta 4 from 23. January 2008
Отчёт EAC об извлечении, выполненном 10. января 2010, 16:49
Greetje Bijma / Barefoot
Дисковод: TSSTcorpCDDVDW SH-S203D Adapter: 3 ID: 0
Режим чтения : Достоверность
Использование точного потока : Да
Отключение кэша аудио : Да
Использование указателей C2 : Нет
Коррекция смещения при чтении : 6
Способность читать области Lead-in и Lead-out : Нет
Заполнение пропущенных сэмплов тишиной : Да
Удаление блоков с тишиной в начале и конце : Нет
При вычислениях CRC использовались нулевые сэмплы : Да
Интерфейс : Установленный внешний ASPI-интерфейс
Выходной формат : Внутренние WAV-операции
Формат сэмплов : 44.100 Гц; 16 бит; стерео
TOC извлечённого CD
Трек | Старт | Длительность | Начальный сектор | Конечный сектор
---------------------------------------------------------------------
1 | 0:00.32 | 6:04.73 | 32 | 27404
2 | 6:05.30 | 7:39.50 | 27405 | 61879
3 | 13:45.05 | 2:34.20 | 61880 | 73449
4 | 16:19.25 | 4:31.52 | 73450 | 93826
5 | 20:51.02 | 1:56.03 | 93827 | 102529
6 | 22:47.05 | 3:43.30 | 102530 | 119284
7 | 26:30.35 | 2:09.70 | 119285 | 129029
8 | 28:40.30 | 1:31.32 | 129030 | 135886
9 | 30:11.62 | 5:54.05 | 135887 | 162441
10 | 36:05.67 | 3:48.13 | 162442 | 179554
11 | 39:54.05 | 5:21.47 | 179555 | 203676
Характеристики диапазона извлечения и сообщения об ошибках
Выбранный диапазон
Имя файла E:\FOS\MISIC\Bijma Greetje\Greetje Bijma - Barefoot\Greetje Bijma - Barefoot - 1993.wav
Пиковый уровень 99.3 %
Качество диапазона 100.0 %
CRC копии 65E6EC15
Копирование... OK
Ошибок не произошло
Конец отчёта
По всем вопросам пишите личное сообщение пользователю M0p94ok.
18:22
129
Нет комментариев. Ваш будет первым!