Вы используете незарегистрированную версию компонента "Вкладки"!

Поиск

(Avant-Garde) Fred Anderson - 21st Century Chase - 2009, APE (image+.cue), lossless

(Avant-Garde) Fred Anderson - 21st Century Chase - 2009, APE (image+.cue), lossless
Треклист:
Fred Anderson - 21st Century Chase
Жанр: Avant-Garde
Год выпуска диска: 2009
Производитель диска: delmark
Аудио кодек: APE
Тип рипа: image+.cue
Битрейт аудио: lossless
Трэклист:
1 21st Century Chase, Pt I Anderson 37:13
2 21st Century Chase, Pt II Anderson 15
3 Ode to Alvin Fielder Anderson 16:27
Доп. информация: Fred Anderson Sax (Tenor)
Harrison Bankhead Bass
Kidd Jordan Sax (Tenor)
Jeff Parker Guitar
Chad Taylor Drums
 
Отчёт EAC
Exact Audio Copy V0.99 prebeta 4 from 23. January 2008
EAC extraction logfile from 13. January 2010, 12:13
Fred Anderson / 21st Century Chase
Used drive : _NEC CD-RW NR-9500B Adapter: 3 ID: 0
Read mode : Secure
Utilize accurate stream : Yes
Defeat audio cache : Yes
Make use of C2 pointers : No
Read offset correction : 145
Overread into Lead-In and Lead-Out : No
Fill up missing offset samples with silence : Yes
Delete leading and trailing silent blocks : No
Null samples used in CRC calculations : No
Used interface : Native Win32 interface for Win NT & 2000
Used output format : Internal WAV Routines
Sample format : 44.100 Hz; 16 Bit; Stereo
TOC of the extracted CD
Track | Start | Length | Start sector | End sector
---------------------------------------------------------
1 | 0:00.00 | 37:13.22 | 0 | 167496
2 | 37:13.22 | 15:09.18 | 167497 | 235689
3 | 52:22.40 | 16:27.65 | 235690 | 309779
Range status and errors
Selected range
Filename D:\BItTorent dounload\New Folder (2)\Fred Anderson - 21st Century Chase.wav
Peak level 100.0 %
Range quality 100.0 %
Copy CRC 2D969668
Copy OK
No errors occurred
AccurateRip summary
Track 1 not present in database
Track 2 not present in database
Track 3 not present in database
None of the tracks are present in the AccurateRip database
End of status report
Any questions -> support@pro-jazz.com. По всем вопросам пишите -> support@pro-jazz.com
18:20
121
Нет комментариев. Ваш будет первым!