Вы используете незарегистрированную версию компонента "Вкладки"!

Поиск

(Modern Creative / Avant-Garde) Mario Pavone - Toulon Days - 1992, FLAC (image+.cue), lossless

(Modern Creative / Avant-Garde) Mario Pavone - Toulon Days - 1992, FLAC (image+.cue), lossless
Треклист:
Mario Pavone - Toulon Days
Жанр: Modern Creative / Avant-Garde
Год выпуска диска: 1992
Производитель диска: USA (New Word Records 80420 2)
Аудио кодек: FLAC
Тип рипа: image+.cue
Битрейт аудио: lossless
Продолжительность: 43:37
Thomas Chapin alto saxophone, flute
Joshua Redman tenor saxophone
Marty Ehrlich clarinet, flute
Steve Davis trombone
Hotep Idris Galeta piano
Steve Johns drums
Mario Pavone bass
1. Tepito
2. Old & New Dreams (for Dewey Redman)
3. Monk in Soweto
4. Walking Mistery Man
5. Toulon
6. Colin Mac
7. Z Hopper
8. Freedom Song
 
EAC Report
Exact Audio Copy V0.99 prebeta 4 from 23. January 2008
EAC extraction logfile from 8. April 2009, 0:02
Mario Pavone / Toulon Days
Used drive : TSSTcorpCD/DVDW SH-S182M Adapter: 2 ID: 0
Read mode : Secure
Utilize accurate stream : Yes
Defeat audio cache : Yes
Make use of C2 pointers : No
Read offset correction : 6
Overread into Lead-In and Lead-Out : No
Fill up missing offset samples with silence : Yes
Delete leading and trailing silent blocks : No
Null samples used in CRC calculations : Yes
Used interface : Installed external ASPI interface
Used output format : User Defined Encoder
Selected bitrate : 1024 kBit/s
Quality : High
Add ID3 tag : No
Command line compressor : C:\Program Files\Exact Audio Copy\FLAC\FLAC.EXE
Additional command line options : -8 -V -T "ARTIST=%a" -T "TITLE=%t" -T "ALBUM=%g" -T "DATE=%y" -T "TRACKNUMBER=%n" -T "GENRE=%m" -T "COMMENT=%e" %s -o %d
TOC of the extracted CD
Track | Start | Length | Start sector | End sector
---------------------------------------------------------
1 | 0:00.00 | 4:57.35 | 0 | 22309
2 | 4:57.35 | 6:20.45 | 22310 | 50854
3 | 11:18.05 | 6:58.65 | 50855 | 82269
4 | 18:16.70 | 5:00.45 | 82270 | 104814
5 | 23:17.40 | 5:25.72 | 104815 | 129261
6 | 28:43.37 | 3:05.05 | 129262 | 143141
7 | 31:48.42 | 6:08.35 | 143142 | 170776
8 | 37:57.02 | 9:40.23 | 170777 | 214299
Range status and errors
Selected range
Filename C:\Documents and Settings\Igor\My Documents\My Music\eac\Mario Pavone - Toulon Days.wav
Peak level 98.4 %
Range quality 100.0 %
Test CRC 4CC94273
Copy CRC 4CC94273
Copy OK
No errors occurred
AccurateRip summary
Track 1 not present in database
Track 2 not present in database
Track 3 not present in database
Track 4 not present in database
Track 5 not present in database
Track 6 not present in database
Track 7 not present in database
Track 8 not present in database
None of the tracks are present in the AccurateRip database
End of status report
Any questions -> support@pro-jazz.com. По всем вопросам пишите -> support@pro-jazz.com
10:38
160
Нет комментариев. Ваш будет первым!