Вы используете незарегистрированную версию компонента "Вкладки"!

Поиск

(Avant-Garde Jazz) Curlew (George Cartwright) - Paradise - 1996, FLAC (image+.cue), lossless

(Avant-Garde Jazz) Curlew (George Cartwright) - Paradise - 1996, FLAC (image+.cue), lossless
Треклист:
Curlew (George Cartwright) - Paradise
Жанр: Avant-Garde Jazz
Год выпуска диска: 1996
Производитель диска: Cuneiform Rec. USA
Аудио кодек: FLAC
Тип рипа: image+.cue
Битрейт аудио: lossless
Продолжительность: 49:00
Трэклист:
01. Gimmie
02. Big Stan
03. Dream Of Rain
04. The Popeye Hole
05. The Holy Goof
06. Paradise
07. Kangaroo
08. Last Day
09. Cowboy Mouth
10. Postcard
The Band:
George Cartwright: alto and tenor saxophones
Chris Cochrane: guitar and vocals
Davey Williams: guitar
Samm Bennett: drums and percussion
Ann Rupel: bass and vocals
special guest:
Jim Spake: baritone and soprano saxophones
Рип с оригинального диска из собственной коллекции
 
Отчёт EAC
Exact Audio Copy V0.99 prebeta 4 from 23. January 2008
Отчёт EAC об извлечении, выполненном 2. мая 2009, 17:41
Curlew / Paradise
Дисковод: Optiarc DVD RW AD-7203S Adapter: 4 ID: 0
Режим чтения : Достоверность
Использование точного потока : Да
Отключение кэша аудио : Да
Использование указателей C2 : Нет
Коррекция смещения при чтении : 48
Способность читать области Lead-in и Lead-out : Нет
Заполнение пропущенных сэмплов тишиной : Да
Удаление блоков с тишиной в начале и конце : Нет
При вычислениях CRC использовались нулевые сэмплы : Да
Интерфейс : Встроенный Win32-интерфейс для Win NT/2000
Выходной формат : Пользовательский кодировщик
Выбранный битрейт : 768 kBit/s
Качество : Высокий
Добавление ID3-тэга : Нет
Утилита сжатия : C:\Program Files\Exact Audio Copy\FLAC\FLAC.EXE
Дополнительные параметры : -6 -V -T "ARTIST=%a" -T "TITLE=%t" -T "ALBUM=%g" -T "DATE=%y" -T "TRACKNUMBER=%n" -T "GENRE=%m" -T "COMMENT=%e" %s -o %d
TOC извлечённого CD
Трек | Старт | Длительность | Начальный сектор | Конечный сектор
---------------------------------------------------------------------
1 | 0:00.00 | 4:55.45 | 0 | 22169
2 | 4:55.45 | 4:48.47 | 22170 | 43816
3 | 9:44.17 | 6:50.18 | 43817 | 74584
4 | 16:34.35 | 6:57.12 | 74585 | 105871
5 | 23:31.47 | 5:18.20 | 105872 | 129741
6 | 28:49.67 | 6:05.45 | 129742 | 157161
7 | 34:55.37 | 6:18.35 | 157162 | 185546
8 | 41:13.72 | 2:39.68 | 185547 | 197539
9 | 43:53.65 | 2:23.52 | 197540 | 208316
10 | 46:17.42 | 2:42.63 | 208317 | 220529
Характеристики диапазона извлечения и сообщения об ошибках
Выбранный диапазон
Имя файла F:\U-TORRENT\Curlew - Paradise\Curlew - Paradise.wav
Пиковый уровень 100.0 %
Качество диапазона 100.0 %
CRC копии BEC8D4CF
Копирование... OK
Ошибок не произошло
AccurateRip: сводка
Трек 1 нет в базе данных
Трек 2 нет в базе данных
Трек 3 нет в базе данных
Трек 4 нет в базе данных
Трек 5 нет в базе данных
Трек 6 нет в базе данных
Трек 7 нет в базе данных
Трек 8 нет в базе данных
Трек 9 нет в базе данных
Трек 10 нет в базе данных
Ни одного трека нет в базе AccurateRip
Конец отчёта
Any questions -> support@pro-jazz.com. По всем вопросам пишите -> support@pro-jazz.com
10:37
127
Нет комментариев. Ваш будет первым!