Вы используете незарегистрированную версию компонента "Вкладки"!

Поиск

(Avant-Garde / Modern Creative) Marty Ehrlich - New York Child - 1996, FLAC (image+.cue), lossless

(Avant-Garde / Modern Creative) Marty Ehrlich - New York Child - 1996, FLAC (image+.cue), lossless
Треклист:
Marty Ehrlich - New York Child
Жанр: Avant-Garde / Modern Creative
Год выпуска диска: 1996
Производитель диска: Germany (Enja ENJ-9025 2)
Аудио кодек: FLAC
Тип рипа: image+.cue
Битрейт аудио: lossless
Продолжительность: 58:06
Marty Ehrlich alto saxophone, clarinet, bass clarinet
Stan Strickland tenor saxophone
Michael Cain piano
Michael Formanek bass
Bill Stewart drums
1. New York Child
2. Generosity
3. Georgia Blue
4. Tell me this
5. Elvin´s Exit
6. Prelude
7. Time and the wild words
8. Untitled
9. Turn again
 
EAC Report
Exact Audio Copy V0.99 prebeta 4 from 23. January 2008
EAC extraction logfile from 9. March 2009, 22:24
Marty Ehrlich / New York Child
Used drive : TSSTcorpCD/DVDW SH-S182M Adapter: 2 ID: 1
Read mode : Secure
Utilize accurate stream : Yes
Defeat audio cache : Yes
Make use of C2 pointers : No
Read offset correction : 6
Overread into Lead-In and Lead-Out : No
Fill up missing offset samples with silence : Yes
Delete leading and trailing silent blocks : No
Null samples used in CRC calculations : Yes
Used interface : Installed external ASPI interface
Used output format : User Defined Encoder
Selected bitrate : 1024 kBit/s
Quality : High
Add ID3 tag : No
Command line compressor : C:\Program Files\Exact Audio Copy\FLAC\FLAC.EXE
Additional command line options : -8 -V -T "ARTIST=%a" -T "TITLE=%t" -T "ALBUM=%g" -T "DATE=%y" -T "TRACKNUMBER=%n" -T "GENRE=%m" -T "COMMENT=%e" %s -o %d
TOC of the extracted CD
Track | Start | Length | Start sector | End sector
---------------------------------------------------------
1 | 0:00.00 | 5:01.55 | 0 | 22629
2 | 5:01.55 | 7:07.60 | 22630 | 54714
3 | 12:09.40 | 4:46.72 | 54715 | 76236
4 | 16:56.37 | 10:05.70 | 76237 | 121681
5 | 27:02.32 | 8:20.00 | 121682 | 159181
6 | 35:22.32 | 2:41.30 | 159182 | 171286
7 | 38:03.62 | 5:04.38 | 171287 | 194124
8 | 43:08.25 | 5:47.20 | 194125 | 220169
9 | 48:55.45 | 9:10.57 | 220170 | 261476
Range status and errors
Selected range
Filename C:\Documents and Settings\Igor\My Documents\My Music\eac\Marty Ehrlich - New York Child.wav
Peak level 95.7 %
Range quality 99.9 %
Test CRC 1813DCC4
Copy CRC 1813DCC4
Copy OK
No errors occurred
AccurateRip summary
Track 1 not present in database
Track 2 not present in database
Track 3 not present in database
Track 4 not present in database
Track 5 not present in database
Track 6 not present in database
Track 7 not present in database
Track 8 not present in database
Track 9 not present in database
None of the tracks are present in the AccurateRip database
End of status report
Any questions -> support@pro-jazz.com. По всем вопросам пишите -> support@pro-jazz.com
10:39
162
Нет комментариев. Ваш будет первым!