Вы используете незарегистрированную версию компонента "Вкладки"!

Поиск

(Modern Creative / Avant-Garde Jazz) Michael Riessler (Markus Stockhausen, Yves Favre, Michael Svoboda, Marco Ambrosini, Jacques Di Donato, Renaud Garcia-Fons ... ) - Honig und Asche - 1998 [ENJA Records ENJ-9303 2], FLAC (tracks+.cue) lossless

(Modern Creative / Avant-Garde Jazz) Michael Riessler (Markus Stockhausen, Yves Favre, Michael Svoboda, Marco Ambrosini, Jacques Di Donato, Renaud Garcia-Fons ... ) - Honig und Asche - 1998 [ENJA Records ENJ-9303 2], FLAC (tracks+.cue) lossless
Треклист:
Michael Riessler - Honig und Asche
Жанр: Modern Creative / Avant-Garde Jazz
Страна-производитель диска: Germany
Год издания диска: 1998
Издатель (лейбл): ENJA Records
Номер по каталогу: ENJ-9303 2
Аудио кодек: FLAC (*.flac)
Тип рипа: tracks+.cue
Битрейт аудио: lossless
Продолжительность: 00:51:49
Источник (релизер): собственный рип с оригинального Audio CD
Наличие сканов в содержимом раздачи: да
Треклист:
1. debut (01:21)
2. honig und asche (05:27)
3. je ne parle pas (04:50)
4. piccola cosmogonia portatile (05:44)
5. to nobly body (04:31)
6. zungen (03:21)
7. th (06:36)
8. en (03:46)
9. rem (06:24)
10. otang (09:42)
All composition by Michael Riessler
Доп. информация:
Musicians:
Lucilla Galeazzi - vocal
Elise Caron - vocal
Markus Stockhausen - trumpet
Thomas Heberer - trumpet
Yves Favre - trombone
Michael Svoboda - trombone
Michael Nick - violin
Marco Ambrosini - nickelarpa
Michael Riessler - reeds
Jacques Di Donato - reeds
Jean-Louis Matinier - accordion
Renaud Garcia-Fons - bass
Carlo Rizzo - tambourine
Robby Ameen - drums
Recorded by Max Federhofer at Südwestfunk Studio on March 3-9, 1997
© 1998 ENJA Records
Michael Riessler Official Site
Michael Riessler - Honing und Asche enjarecords.com
Michael Riessler - Honing und Asche журнал Jazz-квадрат
 
... back ...
 
EAC extraction logfile from 14. December 2010, 21:33
Exact Audio Copy V0.99 prebeta 4 from 23. January 2008
EAC extraction logfile from 14. December 2010, 21:33
Michael Riessler / Honig und Asche
Used drive : Optiarc DVD RW AD-7260S Adapter: 2 ID: 0
Read mode : Secure
Utilize accurate stream : Yes
Defeat audio cache : Yes
Make use of C2 pointers : No
Read offset correction : 48
Overread into Lead-In and Lead-Out : No
Fill up missing offset samples with silence : Yes
Delete leading and trailing silent blocks : No
Null samples used in CRC calculations : Yes
Used interface : Installed external ASPI interface
Gap handling : Appended to previous track
Used output format : User Defined Encoder
Selected bitrate : 128 kBit/s
Quality : High
Add ID3 tag : No
Command line compressor : D:\Program Files\Exact Audio Copy\Flac\flac.exe
Additional command line options : -8 -V -T "ARTIST=%a" -T "TITLE=%t" -T "ALBUM=%g" -T "DATE=%y" -T "TRACKNUMBER=%n" -T "GENRE=%m" -T "COMMENT=EAC FLAC -8" %s
TOC of the extracted CD
Track | Start | Length | Start sector | End sector
---------------------------------------------------------
1 | 0:00.00 | 1:21.15 | 0 | 6089
2 | 1:21.15 | 5:27.25 | 6090 | 30639
3 | 6:48.40 | 4:50.40 | 30640 | 52429
4 | 11:39.05 | 5:44.32 | 52430 | 78261
5 | 17:23.37 | 4:31.30 | 78262 | 98616
6 | 21:54.67 | 3:21.60 | 98617 | 113751
7 | 25:16.52 | 6:36.13 | 113752 | 143464
8 | 31:52.65 | 3:46.47 | 143465 | 160461
9 | 35:39.37 | 6:24.68 | 160462 | 189329
10 | 42:04.30 | 9:43.10 | 189330 | 233064
Track 1
Filename G:\TORRENTS.ru_Audio CD\#077_Michael Riessler - Honing und Asche (1998)\Michael Riessler - Honing und Asche (1998)\01 - debut.wav
Pre-gap length 0:00:02.00
Peak level 75.3 %
Track quality 100.0 %
Test CRC 13FD85B4
Copy CRC 13FD85B4
Accurately ripped (confidence 7) [55D71D0C]
Copy OK
Track 2
Filename G:\TORRENTS.ru_Audio CD\#077_Michael Riessler - Honing und Asche (1998)\Michael Riessler - Honing und Asche (1998)\02 - honig und asche.wav
Peak level 98.2 %
Track quality 100.0 %
Test CRC 3EC8382B
Copy CRC 3EC8382B
Accurately ripped (confidence 7) [20B48093]
Copy OK
Track 3
Filename G:\TORRENTS.ru_Audio CD\#077_Michael Riessler - Honing und Asche (1998)\Michael Riessler - Honing und Asche (1998)\03 - je ne parle pas.wav
Peak level 94.6 %
Track quality 99.9 %
Test CRC D173C7B4
Copy CRC D173C7B4
Accurately ripped (confidence 7) [FDD79545]
Copy OK
Track 4
Filename G:\TORRENTS.ru_Audio CD\#077_Michael Riessler - Honing und Asche (1998)\Michael Riessler - Honing und Asche (1998)\04 - piccola cosmogonia portatile.wav
Peak level 100.0 %
Track quality 100.0 %
Test CRC 8DC2B2A8
Copy CRC 8DC2B2A8
Accurately ripped (confidence 7) [8E75D87B]
Copy OK
Track 5
Filename G:\TORRENTS.ru_Audio CD\#077_Michael Riessler - Honing und Asche (1998)\Michael Riessler - Honing und Asche (1998)\05 - to nobly body.wav
Peak level 42.7 %
Track quality 100.0 %
Test CRC 0B051E95
Copy CRC 0B051E95
Accurately ripped (confidence 7) [03746567]
Copy OK
Track 6
Filename G:\TORRENTS.ru_Audio CD\#077_Michael Riessler - Honing und Asche (1998)\Michael Riessler - Honing und Asche (1998)\06 - zungen.wav
Peak level 98.1 %
Track quality 100.0 %
Test CRC 4F3F0204
Copy CRC 4F3F0204
Accurately ripped (confidence 7) [4F2C221A]
Copy OK
Track 7
Filename G:\TORRENTS.ru_Audio CD\#077_Michael Riessler - Honing und Asche (1998)\Michael Riessler - Honing und Asche (1998)\07 - th.wav
Peak level 98.4 %
Track quality 99.9 %
Test CRC C528F0E9
Copy CRC C528F0E9
Accurately ripped (confidence 7) [170D9FD0]
Copy OK
Track 8
Filename G:\TORRENTS.ru_Audio CD\#077_Michael Riessler - Honing und Asche (1998)\Michael Riessler - Honing und Asche (1998)\08 - en.wav
Peak level 70.5 %
Track quality 100.0 %
Test CRC 1AF5CB49
Copy CRC 1AF5CB49
Accurately ripped (confidence 7) [607F8448]
Copy OK
Track 9
Filename G:\TORRENTS.ru_Audio CD\#077_Michael Riessler - Honing und Asche (1998)\Michael Riessler - Honing und Asche (1998)\09 - rem.wav
Peak level 98.4 %
Track quality 100.0 %
Test CRC 45404019
Copy CRC 45404019
Accurately ripped (confidence 7) [99D22893]
Copy OK
Track 10
Filename G:\TORRENTS.ru_Audio CD\#077_Michael Riessler - Honing und Asche (1998)\Michael Riessler - Honing und Asche (1998)\10 - otang.wav
Pre-gap length 0:00:01.20
Peak level 97.7 %
Track quality 99.9 %
Test CRC E05A3932
Copy CRC E05A3932
Accurately ripped (confidence 7) [8B073C80]
Copy OK
All tracks accurately ripped
No errors occurred
End of status report
 
Содержание индексной карты (.CUE)
REM GENRE jazz
REM DATE 1998
REM DISCID 640C230A
REM COMMENT "ExactAudioCopy v0.99pb4"
PERFORMER "Michael Riessler"
TITLE "Honig und Asche"
FILE "01 - debut.wav" WAVE
TRACK 01 AUDIO
TITLE "debut"
PERFORMER "Michael Riessler"
INDEX 01 00:00:00
FILE "02 - honig und asche.wav" WAVE
TRACK 02 AUDIO
TITLE "honig und asche"
PERFORMER "Michael Riessler"
INDEX 01 00:00:00
FILE "03 - je ne parle pas.wav" WAVE
TRACK 03 AUDIO
TITLE "je ne parle pas"
PERFORMER "Michael Riessler"
INDEX 01 00:00:00
FILE "04 - piccola cosmogonia portatile.wav" WAVE
TRACK 04 AUDIO
TITLE "piccola cosmogonia portatile"
PERFORMER "Michael Riessler"
INDEX 01 00:00:00
FILE "05 - to nobly body.wav" WAVE
TRACK 05 AUDIO
TITLE "to nobly body"
PERFORMER "Michael Riessler"
INDEX 01 00:00:00
FILE "06 - zungen.wav" WAVE
TRACK 06 AUDIO
TITLE "zungen"
PERFORMER "Michael Riessler"
INDEX 01 00:00:00
FILE "07 - th.wav" WAVE
TRACK 07 AUDIO
TITLE "th"
PERFORMER "Michael Riessler"
INDEX 01 00:00:00
FILE "08 - en.wav" WAVE
TRACK 08 AUDIO
TITLE "en"
PERFORMER "Michael Riessler"
INDEX 01 00:00:00
FILE "09 - rem.wav" WAVE
TRACK 09 AUDIO
TITLE "rem"
PERFORMER "Michael Riessler"
INDEX 01 00:00:00
TRACK 10 AUDIO
TITLE "otang"
PERFORMER "Michael Riessler"
INDEX 00 06:23:48
FILE "10 - otang.wav" WAVE
INDEX 01 00:00:00
... релизы с участием MICHAEL RIESSLER на трекере ...
Any questions -> support@pro-jazz.com. По всем вопросам пишите -> support@pro-jazz.com
06:38
429
Нет комментариев. Ваш будет первым!