Вы используете незарегистрированную версию компонента "Вкладки"!

Поиск

(avant-garde) Myra Melford's Be Bread - The Whole Tree Gone (2010), FLAC (tracks+.cue) lossless

(avant-garde) Myra Melford's Be Bread - The Whole Tree Gone (2010), FLAC (tracks+.cue) lossless
Треклист:

Myra Melford's Be Bread - The Whole Tree Gone (2010) /
Жанр: avant-garde
Год издания диска: 2010
Аудио кодек: FLAC (*.flac)
Тип рипа: tracks+.cue
Битрейт аудио: lossless
Продолжительность: 1`05
Источник (релизер): what.cd
Наличие сканов в содержимом раздачи: нет
Треклист:
1) Through the Same Gate (6:29)
2) Moon Bird (11:02)
3) Night (8:41)
4) The Whole Tree Gone (8:39)
5) A Generation Comes and Another Goes (8:34)
6) I See a Horizon (6:14)
7) On the Lip of Insanity (7:28)
8) Knocking from the Inside (8:20)
 
Лог создания рипа
X Lossless Decoder version 20101208 (126.1)
XLD extraction logfile from 2010-12-12 07:22:24 -0500
Myra Melford Be Bread / The Whole Tree Gone
Used drive : MATSHITA CD-RW CW-8124 (revision DACK)
Ripper mode : CDParanoia III 10.2
Disable audio cache : OK for the drive with a cache less than 2750KiB
Make use of C2 pointers : NO
Read offset correction : 102
Max retry count : 100
Gap status : Analyzed, Appended
TOC of the extracted CD
Track | Start | Length | Start sector | End sector
---------------------------------------------------------
1 | 00:00:00 | 06:27:33 | 0 | 29057
2 | 06:27:33 | 11:02:16 | 29058 | 78723
3 | 17:29:49 | 08:41:70 | 78724 | 117868
4 | 26:11:44 | 08:39:51 | 117869 | 156844
5 | 34:51:20 | 08:34:41 | 156845 | 195435
6 | 43:25:61 | 06:14:00 | 195436 | 223485
7 | 49:39:61 | 07:28:23 | 223486 | 257108
8 | 57:08:09 | 08:20:45 | 257109 | 294653
AccurateRip Summary
Disc not found in AccurateRip DB.
All Tracks
Album gain : -5.02 dB
Peak : 0.977356
Statistics
Read error : 0
Skipped (treated as error) : 0
Edge jitter error (maybe fixed) : 0
Atom jitter error (maybe fixed) : 0
Drift error (maybe fixed) : 0
Dropped bytes error (maybe fixed) : 0
Duplicated bytes error (maybe fixed) : 0
Track 01
Filename : /Users/chuckyd4/Desktop/01 Myra Melford Be Bread - Through the Same Gate.flac
Pre-gap length : 00:02:00
Track gain : -5.21 dB
Peak : 0.977325
CRC32 hash (test run) : 1F319148
CRC32 hash : 1F319148
CRC32 hash (skip zero) : 855FFF53
AccurateRip signature : B4E7DF44
->Track not present in AccurateRip database.
Statistics
Read error : 0
Skipped (treated as error) : 0
Edge jitter error (maybe fixed) : 0
Atom jitter error (maybe fixed) : 0
Drift error (maybe fixed) : 0
Dropped bytes error (maybe fixed) : 0
Duplicated bytes error (maybe fixed) : 0
Inconsistency in error sectors : 0
Track 02
Filename : /Users/chuckyd4/Desktop/02 Myra Melford Be Bread - Moon Bird.flac
Track gain : -5.41 dB
Peak : 0.977325
CRC32 hash (test run) : F9DBBB39
CRC32 hash : F9DBBB39
CRC32 hash (skip zero) : 61E0333E
AccurateRip signature : ABF43AA8
->Track not present in AccurateRip database.
Statistics
Read error : 0
Skipped (treated as error) : 0
Edge jitter error (maybe fixed) : 0
Atom jitter error (maybe fixed) : 0
Drift error (maybe fixed) : 0
Dropped bytes error (maybe fixed) : 0
Duplicated bytes error (maybe fixed) : 0
Inconsistency in error sectors : 0
Track 03
Filename : /Users/chuckyd4/Desktop/03 Myra Melford Be Bread - Night.flac
Track gain : -4.87 dB
Peak : 0.977325
CRC32 hash (test run) : F7C7BE4E
CRC32 hash : F7C7BE4E
CRC32 hash (skip zero) : C524FE3E
AccurateRip signature : F7BEE453
->Track not present in AccurateRip database.
Statistics
Read error : 0
Skipped (treated as error) : 0
Edge jitter error (maybe fixed) : 0
Atom jitter error (maybe fixed) : 0
Drift error (maybe fixed) : 0
Dropped bytes error (maybe fixed) : 0
Duplicated bytes error (maybe fixed) : 0
Inconsistency in error sectors : 0
Track 04
Filename : /Users/chuckyd4/Desktop/04 Myra Melford Be Bread - The Whole Tree Gone.flac
Track gain : -4.68 dB
Peak : 0.977356
CRC32 hash (test run) : 6549557D
CRC32 hash : 6549557D
CRC32 hash (skip zero) : EE72CCEF
AccurateRip signature : DF541D1D
->Track not present in AccurateRip database.
Statistics
Read error : 0
Skipped (treated as error) : 0
Edge jitter error (maybe fixed) : 0
Atom jitter error (maybe fixed) : 0
Drift error (maybe fixed) : 0
Dropped bytes error (maybe fixed) : 0
Duplicated bytes error (maybe fixed) : 0
Inconsistency in error sectors : 0
Track 05
Filename : /Users/chuckyd4/Desktop/05 Myra Melford Be Bread - A Generation Comes and Another Goes.flac
Track gain : -5.75 dB
Peak : 0.977325
CRC32 hash (test run) : 57745173
CRC32 hash : 57745173
CRC32 hash (skip zero) : 209C3930
AccurateRip signature : DFE91985
->Track not present in AccurateRip database.
Statistics
Read error : 0
Skipped (treated as error) : 0
Edge jitter error (maybe fixed) : 0
Atom jitter error (maybe fixed) : 0
Drift error (maybe fixed) : 0
Dropped bytes error (maybe fixed) : 0
Duplicated bytes error (maybe fixed) : 0
Inconsistency in error sectors : 0
Track 06
Filename : /Users/chuckyd4/Desktop/06 Myra Melford Be Bread - I See a Horizon.flac
Track gain : -4.54 dB
Peak : 0.977356
CRC32 hash (test run) : 3CE2CE6C
CRC32 hash : 3CE2CE6C
CRC32 hash (skip zero) : 6D60B8C7
AccurateRip signature : 6F64DCAE
->Track not present in AccurateRip database.
Statistics
Read error : 0
Skipped (treated as error) : 0
Edge jitter error (maybe fixed) : 0
Atom jitter error (maybe fixed) : 0
Drift error (maybe fixed) : 0
Dropped bytes error (maybe fixed) : 0
Duplicated bytes error (maybe fixed) : 0
Inconsistency in error sectors : 0
Track 07
Filename : /Users/chuckyd4/Desktop/07 Myra Melford Be Bread - On the Lip of Insanity.flac
Track gain : -3.70 dB
Peak : 0.977325
CRC32 hash (test run) : F35634BD
CRC32 hash : F35634BD
CRC32 hash (skip zero) : 581747A0
AccurateRip signature : 84ACD15E
->Track not present in AccurateRip database.
Statistics
Read error : 0
Skipped (treated as error) : 0
Edge jitter error (maybe fixed) : 0
Atom jitter error (maybe fixed) : 0
Drift error (maybe fixed) : 0
Dropped bytes error (maybe fixed) : 0
Duplicated bytes error (maybe fixed) : 0
Inconsistency in error sectors : 0
Track 08
Filename : /Users/chuckyd4/Desktop/08 Myra Melford Be Bread - Knocking From the Inside.flac
Track gain : -4.94 dB
Peak : 0.977356
CRC32 hash (test run) : F0726AD6
CRC32 hash : F0726AD6
CRC32 hash (skip zero) : DA09E781
AccurateRip signature : 6524FD46
->Track not present in AccurateRip database.
Statistics
Read error : 0
Skipped (treated as error) : 0
Edge jitter error (maybe fixed) : 0
Atom jitter error (maybe fixed) : 0
Drift error (maybe fixed) : 0
Dropped bytes error (maybe fixed) : 0
Duplicated bytes error (maybe fixed) : 0
Inconsistency in error sectors : 0
No errors occurred
End of status report
 
Содержание индексной карты (.CUE)
TITLE "The Whole Tree Gone"
PERFORMER "Myra Melford`s Be Bread"
CATALOG 0616892053361
REM GENRE "Jazz"
REM DATE 2010
REM DISCNUMBER 1
REM TOTALDISCS 1
REM DISCID 680F5808
REM REPLAYGAIN_ALBUM_GAIN -5.02 dB
REM REPLAYGAIN_ALBUM_PEAK 0.977356
FILE "01 Myra Melford`s Be Bread - Through the Same Gate.wav" WAVE
TRACK 01 AUDIO
TITLE "Through the Same Gate"
SONGWRITER "Myra Melford"
ISRC USYL80700123
REM REPLAYGAIN_TRACK_GAIN -5.21 dB
REM REPLAYGAIN_TRACK_PEAK 0.977325
INDEX 01 00:00:00
FILE "02 Myra Melford`s Be Bread - Moon Bird.wav" WAVE
TRACK 02 AUDIO
TITLE "Moon Bird"
SONGWRITER "Myra Melford"
ISRC USYL80700124
REM REPLAYGAIN_TRACK_GAIN -5.41 dB
REM REPLAYGAIN_TRACK_PEAK 0.977325
INDEX 01 00:00:00
FILE "03 Myra Melford`s Be Bread - Night.wav" WAVE
TRACK 03 AUDIO
TITLE "Night"
SONGWRITER "Myra Melford"
ISRC USYL80700125
REM REPLAYGAIN_TRACK_GAIN -4.87 dB
REM REPLAYGAIN_TRACK_PEAK 0.977325
INDEX 01 00:00:00
FILE "04 Myra Melford`s Be Bread - The Whole Tree Gone.wav" WAVE
TRACK 04 AUDIO
TITLE "The Whole Tree Gone"
SONGWRITER "Myra Melford"
ISRC USYL80700126
REM REPLAYGAIN_TRACK_GAIN -4.68 dB
REM REPLAYGAIN_TRACK_PEAK 0.977356
INDEX 01 00:00:00
FILE "05 Myra Melford`s Be Bread - A Generation Comes and Another Goes.wav" WAVE
TRACK 05 AUDIO
TITLE "A Generation Comes and Another Goes"
SONGWRITER "Myra Melford"
ISRC USYL80700127
REM REPLAYGAIN_TRACK_GAIN -5.75 dB
REM REPLAYGAIN_TRACK_PEAK 0.977325
INDEX 01 00:00:00
FILE "06 Myra Melford`s Be Bread - I See a Horizon.wav" WAVE
TRACK 06 AUDIO
TITLE "I See a Horizon"
SONGWRITER "Myra Melford"
ISRC USYL80700128
REM REPLAYGAIN_TRACK_GAIN -4.54 dB
REM REPLAYGAIN_TRACK_PEAK 0.977356
INDEX 01 00:00:00
FILE "07 Myra Melford`s Be Bread - On the Lip of Insanity.wav" WAVE
TRACK 07 AUDIO
TITLE "On the Lip of Insanity"
SONGWRITER "Myra Melford"
ISRC USYL80700129
REM REPLAYGAIN_TRACK_GAIN -3.70 dB
REM REPLAYGAIN_TRACK_PEAK 0.977325
INDEX 01 00:00:00
FILE "08 Myra Melford`s Be Bread - Knocking From the Inside.wav" WAVE
TRACK 08 AUDIO
TITLE "Knocking From the Inside"
SONGWRITER "Myra Melford"
ISRC USYL80700130
REM REPLAYGAIN_TRACK_GAIN -4.94 dB
REM REPLAYGAIN_TRACK_PEAK 0.977356
INDEX 01 00:00:00
 
Состав
Myra Melford - piano
Cuong Vu - trumpet
Ben Goldberg - clarinet and contra-alto clarinet
Brandon Ross - guitar and soprano guitar
Stomu Takeishi - acoustic bass guitar
Matt Wilson - drums
другие релизы
Any questions -> support@pro-jazz.com. По всем вопросам пишите -> support@pro-jazz.com
06:37
186
Нет комментариев. Ваш будет первым!