Вы используете незарегистрированную версию компонента "Вкладки"!

Поиск

(contemporary jazz, modern, norway) Zanussi Five - Ghost Dance - 2010, FLAC (tracks+.cue), lossless

Треклист:
Zanussi Five
Ghost Dance
Жанр: contemporary jazz, modern
Год издания диска: 2010
Издатель (лейбл): Moserobie Music Production
Номер по каталогу: MMPCD071
Аудио кодек: FLAC (*.flac)
Тип рипа: tracks+.cue
Битрейт аудио: lossless
Продолжительность: 00:45:58
Источник (релизер): what.cd [bokee]
Наличие сканов в содержимом раздачи: нет
Треклист:
01. Body and Zeuhl
02. Arabesque
03. The Afreet
04. Hidden People
05. Aeriform
06. Beglomoi
07. Ghost Dance
08. Aimless Day
09. Id Machine
Исполнители:
Per Zanussi · (piano, double bass)
Rolf-Erik Nyström · (alto saxophone)
Jorgen Mathisen · (tenor saxophone, clarinet)
Eirik Hegdal · (baritone saxophone, clarinet)
Gard Nilssen · (drums)
 
Лог создания рипа
Exact Audio Copy V0.99 prebeta 5 from 4. May 2009
EAC extraction logfile from 6. August 2010, 12:47
Zanussi Five / Ghost Dance
Used drive : TSSTcorpCDDVDW SH-S222A Adapter: 0 ID: 0
Read mode : Secure
Utilize accurate stream : Yes
Defeat audio cache : Yes
Make use of C2 pointers : No
Read offset correction : 6
Overread into Lead-In and Lead-Out : No
Fill up missing offset samples with silence : Yes
Delete leading and trailing silent blocks : No
Null samples used in CRC calculations : Yes
Used interface : Native Win32 interface for Win NT & 2000
Gap handling : Appended to previous track
Used output format : User Defined Encoder
Selected bitrate : 320 kBit/s
Quality : High
Add ID3 tag : No
Command line compressor : C:\Program Files\Exact Audio Copy\Flac\flac.exe
Additional command line options : -V -8 -T "artist=%a" -T "title=%t" -T "album=%g" -T "date=%y" -T "tracknumber=%n" -T "genre=%m" %s
TOC of the extracted CD
Track | Start | Length | Start sector | End sector
---------------------------------------------------------
1 | 0:00.00 | 5:55.48 | 0 | 26672
2 | 5:55.48 | 4:12.21 | 26673 | 45593
3 | 10:07.69 | 6:48.05 | 45594 | 76198
4 | 16:55.74 | 7:17.02 | 76199 | 108975
5 | 24:13.01 | 3:07.16 | 108976 | 123016
6 | 27:20.17 | 1:35.59 | 123017 | 130200
7 | 28:56.01 | 5:05.30 | 130201 | 153105
8 | 34:01.31 | 4:30.33 | 153106 | 173388
9 | 38:31.64 | 7:26.66 | 173389 | 206904
Track 1
Filename C:\Documents and Settings\Uporabnik\My Documents\My Music\Zanussi Five - Ghost Dance\Zanussi Five - Ghost Dance\01 Body and Zeuhl.wav
Pre-gap length 0:00:02.00
Peak level 98.8 %
Track quality 99.9 %
Test CRC A6B2ACAA
Copy CRC A6B2ACAA
Track not present in AccurateRip database
Copy OK
Track 2
Filename C:\Documents and Settings\Uporabnik\My Documents\My Music\Zanussi Five - Ghost Dance\Zanussi Five - Ghost Dance\02 Arabesque.wav
Pre-gap length 0:00:02.00
Peak level 97.8 %
Track quality 100.0 %
Test CRC 947CEC50
Copy CRC 947CEC50
Track not present in AccurateRip database
Copy OK
Track 3
Filename C:\Documents and Settings\Uporabnik\My Documents\My Music\Zanussi Five - Ghost Dance\Zanussi Five - Ghost Dance\03 The Afreet.wav
Pre-gap length 0:00:01.26
Peak level 98.8 %
Track quality 100.0 %
Test CRC 0DA09662
Copy CRC 0DA09662
Track not present in AccurateRip database
Copy OK
Track 4
Filename C:\Documents and Settings\Uporabnik\My Documents\My Music\Zanussi Five - Ghost Dance\Zanussi Five - Ghost Dance\04 Hidden People.wav
Pre-gap length 0:00:01.26
Peak level 98.8 %
Track quality 100.0 %
Test CRC A7DFF64B
Copy CRC A7DFF64B
Track not present in AccurateRip database
Copy OK
Track 5
Filename C:\Documents and Settings\Uporabnik\My Documents\My Music\Zanussi Five - Ghost Dance\Zanussi Five - Ghost Dance\05 Aeriform.wav
Pre-gap length 0:00:05.00
Peak level 28.5 %
Track quality 100.0 %
Test CRC D46DA797
Copy CRC D46DA797
Track not present in AccurateRip database
Copy OK
Track 6
Filename C:\Documents and Settings\Uporabnik\My Documents\My Music\Zanussi Five - Ghost Dance\Zanussi Five - Ghost Dance\06 Beglomoi.wav
Pre-gap length 0:00:01.85
Peak level 91.0 %
Track quality 100.0 %
Test CRC 02DE18EF
Copy CRC 02DE18EF
Track not present in AccurateRip database
Copy OK
Track 7
Filename C:\Documents and Settings\Uporabnik\My Documents\My Music\Zanussi Five - Ghost Dance\Zanussi Five - Ghost Dance\07 Ghost Dance.wav
Peak level 98.8 %
Track quality 100.0 %
Test CRC 9B2DEEF3
Copy CRC 9B2DEEF3
Track not present in AccurateRip database
Copy OK
Track 8
Filename C:\Documents and Settings\Uporabnik\My Documents\My Music\Zanussi Five - Ghost Dance\Zanussi Five - Ghost Dance\08 Aimless Day.wav
Peak level 71.1 %
Track quality 100.0 %
Test CRC 141573DD
Copy CRC 141573DD
Track not present in AccurateRip database
Copy OK
Track 9
Filename C:\Documents and Settings\Uporabnik\My Documents\My Music\Zanussi Five - Ghost Dance\Zanussi Five - Ghost Dance\09 Id Machine.wav
Pre-gap length 0:00:01.40
Peak level 98.8 %
Track quality 100.0 %
Test CRC 6F1D25F9
Copy CRC 6F1D25F9
Track not present in AccurateRip database
Copy OK
None of the tracks are present in the AccurateRip database
No errors occurred
End of status report
 
Содержание индексной карты (.cue)
REM GENRE Jazz
REM DATE 2010
REM DISCID 6A0AC609
REM COMMENT "ExactAudioCopy v0.99pb5"
FILE "01. Body and Zeuhl.wav" WAVE
PERFORMER "Zanussi Five"
TITLE "Ghost Dance"
FILE "01. Body and Zeuhl.wav" WAVE
TRACK 01 AUDIO
TITLE "Body and Zeuhl"
PERFORMER "Zanussi Five"
INDEX 01 00:00:00
TRACK 02 AUDIO
TITLE "Arabesque"
PERFORMER "Zanussi Five"
INDEX 00 05:53:48
FILE "02. Arabesque.wav" WAVE
INDEX 01 00:00:00
TRACK 03 AUDIO
TITLE "The Afreet"
PERFORMER "Zanussi Five"
INDEX 00 04:11:01
FILE "03. The Afreet.wav" WAVE
INDEX 01 00:00:00
TRACK 04 AUDIO
TITLE "Hidden People"
PERFORMER "Zanussi Five"
INDEX 00 06:46:60
FILE "04. Hidden People.wav" WAVE
INDEX 01 00:00:00
TRACK 05 AUDIO
TITLE "Aeriform"
PERFORMER "Zanussi Five"
INDEX 00 07:12:02
FILE "05. Aeriform.wav" WAVE
INDEX 01 00:00:00
TRACK 06 AUDIO
TITLE "Beglomoi"
PERFORMER "Zanussi Five"
INDEX 00 03:05:27
FILE "06. Beglomoi.wav" WAVE
INDEX 01 00:00:00
FILE "07. Ghost Dance.wav" WAVE
TRACK 07 AUDIO
TITLE "Ghost Dance"
PERFORMER "Zanussi Five"
INDEX 01 00:00:00
FILE "08. Aimless Day.wav" WAVE
TRACK 08 AUDIO
TITLE "Aimless Day"
PERFORMER "Zanussi Five"
INDEX 01 00:00:00
TRACK 09 AUDIO
TITLE "Id Machine"
PERFORMER "Zanussi Five"
INDEX 00 04:29:03
FILE "09. Id Machine.wav" WAVE
INDEX 01 00:00:00

Any questions -> support@pro-jazz.com. По всем вопросам пишите -> support@pro-jazz.com
06:36
208
Нет комментариев. Ваш будет первым!