Вы используете незарегистрированную версию компонента "Вкладки"!

Поиск

(contemporary jazz, modern, norway) Zanussi Five - Alborado - 2006, FLAC (tracks+.cue), lossless

Треклист:
Zanussi Five
Alborado
Жанр: contemporary jazz, modern
Год издания диска: 2006
Издатель (лейбл): Moserobie Music Production
Номер по каталогу: MMPCD049
Аудио кодек: FLAC (*.flac)
Тип рипа: tracks+.cue
Битрейт аудио: lossless
Продолжительность: 00:48:09
Источник (релизер): what.cd [zopatista]
Наличие сканов в содержимом раздачи: нет
Треклист:
01. Alborado
02. Balatron
03. Amorous Parade
04. Interlocutor
05. Maboroshi
06. Ornitheology
07. Solitude Amidst the Suns
08. Zoanthropy, part 1
09. Zoanthropym, part 2
10. The Glimmung
11. Asso di Picche
Исполнители:
Kjetil Møster · (tenor & soprano sax, clarinet, percussion)
Rolf-Erik Nystrøm · (alto & sopranino sax)
Eirik Hegdal · (bari & soprano sax)
Per Zanussi · (double bass, saw)
Per Oddvar Johanssen · (drums & percussion)
 
Лог создания рипа
X Lossless Decoder version 20101208 (126.1)
XLD extraction logfile from 2010-12-11 15:42:54 +0100
Zanussi Five / Alborado
Used drive : HL-DT-ST DVDRW GS21N (revision SA18)
Ripper mode : CDParanoia III 10.2
Disable audio cache : OK for the drive with a cache less than 2750KiB
Make use of C2 pointers : NO
Read offset correction : 667
Max retry count : 100
Gap status : Analyzed, Appended
TOC of the extracted CD
Track | Start | Length | Start sector | End sector
---------------------------------------------------------
1 | 00:00:00 | 06:07:36 | 0 | 27560
2 | 06:07:36 | 04:10:02 | 27561 | 46312
3 | 10:17:38 | 04:10:56 | 46313 | 65118
4 | 14:28:19 | 06:38:24 | 65119 | 94992
5 | 21:06:43 | 02:18:56 | 94993 | 105398
6 | 23:25:24 | 04:08:40 | 105399 | 124038
7 | 27:33:64 | 03:15:25 | 124039 | 138688
8 | 30:49:14 | 02:42:15 | 138689 | 150853
9 | 33:31:29 | 03:25:57 | 150854 | 166285
10 | 36:57:11 | 03:29:20 | 166286 | 181980
11 | 40:26:31 | 07:43:41 | 181981 | 216746
AccurateRip Summary
Track 01 : OK (confidence 2)
Track 02 : OK (confidence 2)
Track 03 : OK (confidence 2)
Track 04 : OK (confidence 2)
Track 05 : OK (confidence 2)
Track 06 : OK (confidence 2)
Track 07 : OK (confidence 2)
Track 08 : OK (confidence 2)
Track 09 : OK (confidence 2)
Track 10 : OK (confidence 2)
Track 11 : OK (confidence 2)
->All tracks accurately ripped.
All Tracks
Album gain : -4.37 dB
Peak : 0.999969
Statistics
Read error : 1
Skipped (treated as error) : 0
Edge jitter error (maybe fixed) : 0
Atom jitter error (maybe fixed) : 0
Drift error (maybe fixed) : 0
Dropped bytes error (maybe fixed) : 0
Duplicated bytes error (maybe fixed) : 0
Track 01
Filename : /Unsorted MP3/00 In Progress/Zanussi Five - 2006 - Alborado/01 - Alborado.flac
Pre-gap length : 00:02:00
Track gain : -5.63 dB
Peak : 0.997894
CRC32 hash (test run) : C46EE62E
CRC32 hash : C46EE62E
CRC32 hash (skip zero) : BA11E7B2
AccurateRip signature : 74C1CE59
->Accurately ripped! (confidence 2)
Statistics
Read error : 0
Skipped (treated as error) : 0
Edge jitter error (maybe fixed) : 0
Atom jitter error (maybe fixed) : 0
Drift error (maybe fixed) : 0
Dropped bytes error (maybe fixed) : 0
Duplicated bytes error (maybe fixed) : 0
Inconsistency in error sectors : 0
Track 02
Filename : /Unsorted MP3/00 In Progress/Zanussi Five - 2006 - Alborado/02 - Balatron.flac
Track gain : -5.43 dB
Peak : 0.996887
CRC32 hash (test run) : C7D0004A
CRC32 hash : C7D0004A
CRC32 hash (skip zero) : 014C58F4
AccurateRip signature : 0EFA06B3
->Accurately ripped! (confidence 2)
Statistics
Read error : 1
Skipped (treated as error) : 0
Edge jitter error (maybe fixed) : 0
Atom jitter error (maybe fixed) : 0
Drift error (maybe fixed) : 0
Dropped bytes error (maybe fixed) : 0
Duplicated bytes error (maybe fixed) : 0
Inconsistency in error sectors : 0
Track 03
Filename : /Unsorted MP3/00 In Progress/Zanussi Five - 2006 - Alborado/03 - Amorous Parade.flac
Pre-gap length : 00:02:51
Track gain : -1.04 dB
Peak : 0.935303
CRC32 hash (test run) : 450EA8DE
CRC32 hash : 450EA8DE
CRC32 hash (skip zero) : 17C8A1FA
AccurateRip signature : 92AC5A2B
->Accurately ripped! (confidence 2)
Statistics
Read error : 0
Skipped (treated as error) : 0
Edge jitter error (maybe fixed) : 0
Atom jitter error (maybe fixed) : 0
Drift error (maybe fixed) : 0
Dropped bytes error (maybe fixed) : 0
Duplicated bytes error (maybe fixed) : 0
Inconsistency in error sectors : 0
Track 04
Filename : /Unsorted MP3/00 In Progress/Zanussi Five - 2006 - Alborado/04 - Interlocutor.flac
Track gain : 2.99 dB
Peak : 0.995880
CRC32 hash (test run) : 0E4D5C64
CRC32 hash : 0E4D5C64
CRC32 hash (skip zero) : 8BD08AB1
AccurateRip signature : BC1CD828
->Accurately ripped! (confidence 2)
Statistics
Read error : 0
Skipped (treated as error) : 0
Edge jitter error (maybe fixed) : 0
Atom jitter error (maybe fixed) : 0
Drift error (maybe fixed) : 0
Dropped bytes error (maybe fixed) : 0
Duplicated bytes error (maybe fixed) : 0
Inconsistency in error sectors : 0
Track 05
Filename : /Unsorted MP3/00 In Progress/Zanussi Five - 2006 - Alborado/05 - Maboroshi.flac
Track gain : -0.93 dB
Peak : 0.955536
CRC32 hash (test run) : 11E89BA0
CRC32 hash : 11E89BA0
CRC32 hash (skip zero) : E6DD5597
AccurateRip signature : 52B673E9
->Accurately ripped! (confidence 2)
Statistics
Read error : 0
Skipped (treated as error) : 0
Edge jitter error (maybe fixed) : 0
Atom jitter error (maybe fixed) : 0
Drift error (maybe fixed) : 0
Dropped bytes error (maybe fixed) : 0
Duplicated bytes error (maybe fixed) : 0
Inconsistency in error sectors : 0
Track 06
Filename : /Unsorted MP3/00 In Progress/Zanussi Five - 2006 - Alborado/06 - Ornitheology.flac
Track gain : -4.17 dB
Peak : 0.996857
CRC32 hash (test run) : 16D9E642
CRC32 hash : 16D9E642
CRC32 hash (skip zero) : A6927915
AccurateRip signature : 086A0667
->Accurately ripped! (confidence 2)
Statistics
Read error : 0
Skipped (treated as error) : 0
Edge jitter error (maybe fixed) : 0
Atom jitter error (maybe fixed) : 0
Drift error (maybe fixed) : 0
Dropped bytes error (maybe fixed) : 0
Duplicated bytes error (maybe fixed) : 0
Inconsistency in error sectors : 0
Track 07
Filename : /Unsorted MP3/00 In Progress/Zanussi Five - 2006 - Alborado/07 - Solitude Amidst the Suns.flac
Pre-gap length : 00:03:26
Track gain : 1.10 dB
Peak : 0.729004
CRC32 hash (test run) : C270AB3B
CRC32 hash : C270AB3B
CRC32 hash (skip zero) : 9C49C6BA
AccurateRip signature : 54B5B6CF
->Accurately ripped! (confidence 2)
Statistics
Read error : 0
Skipped (treated as error) : 0
Edge jitter error (maybe fixed) : 0
Atom jitter error (maybe fixed) : 0
Drift error (maybe fixed) : 0
Dropped bytes error (maybe fixed) : 0
Duplicated bytes error (maybe fixed) : 0
Inconsistency in error sectors : 0
Track 08
Filename : /Unsorted MP3/00 In Progress/Zanussi Five - 2006 - Alborado/08 - Zoanthropy, Part 1.flac
Pre-gap length : 00:02:52
Track gain : -5.86 dB
Peak : 0.998138
CRC32 hash (test run) : A7CC6EAF
CRC32 hash : A7CC6EAF
CRC32 hash (skip zero) : 3AE64F18
AccurateRip signature : B5AF6FEC
->Accurately ripped! (confidence 2)
Statistics
Read error : 0
Skipped (treated as error) : 0
Edge jitter error (maybe fixed) : 0
Atom jitter error (maybe fixed) : 0
Drift error (maybe fixed) : 0
Dropped bytes error (maybe fixed) : 0
Duplicated bytes error (maybe fixed) : 0
Inconsistency in error sectors : 0
Track 09
Filename : /Unsorted MP3/00 In Progress/Zanussi Five - 2006 - Alborado/09 - Zoanthropy, Part 2.flac
Track gain : -5.35 dB
Peak : 0.997253
CRC32 hash (test run) : 69A9BEBF
CRC32 hash : 69A9BEBF
CRC32 hash (skip zero) : B7C08AE8
AccurateRip signature : 09FF1F8B
->Accurately ripped! (confidence 2)
Statistics
Read error : 0
Skipped (treated as error) : 0
Edge jitter error (maybe fixed) : 0
Atom jitter error (maybe fixed) : 0
Drift error (maybe fixed) : 0
Dropped bytes error (maybe fixed) : 0
Duplicated bytes error (maybe fixed) : 0
Inconsistency in error sectors : 0
Track 10
Filename : /Unsorted MP3/00 In Progress/Zanussi Five - 2006 - Alborado/10 - The Glimmung.flac
Track gain : -3.05 dB
Peak : 0.843414
CRC32 hash (test run) : 803DE06A
CRC32 hash : 803DE06A
CRC32 hash (skip zero) : 33D57EF7
AccurateRip signature : 5B735B7D
->Accurately ripped! (confidence 2)
Statistics
Read error : 0
Skipped (treated as error) : 0
Edge jitter error (maybe fixed) : 0
Atom jitter error (maybe fixed) : 0
Drift error (maybe fixed) : 0
Dropped bytes error (maybe fixed) : 0
Duplicated bytes error (maybe fixed) : 0
Inconsistency in error sectors : 0
Track 11
Filename : /Unsorted MP3/00 In Progress/Zanussi Five - 2006 - Alborado/11 - Asso di Picche.flac
Pre-gap length : 00:03:05
Track gain : -4.39 dB
Peak : 0.999969
CRC32 hash (test run) : 7189FFAD
CRC32 hash : 7189FFAD
CRC32 hash (skip zero) : BE57F6B3
AccurateRip signature : FA153FD2
->Accurately ripped! (confidence 2)
Statistics
Read error : 0
Skipped (treated as error) : 0
Edge jitter error (maybe fixed) : 0
Atom jitter error (maybe fixed) : 0
Drift error (maybe fixed) : 0
Dropped bytes error (maybe fixed) : 0
Duplicated bytes error (maybe fixed) : 0
Inconsistency in error sectors : 0
Some errors occurred
End of status report
 
Содержание индексной карты (.cue)
TITLE "Alborado"
PERFORMER "Zanussi Five"
CATALOG 7320470074862
REM DATE "2006-11-15"
REM DISCID 940B490B
FILE "01 - Alborado.wav" WAVE
TRACK 01 AUDIO
TITLE "Alborado"
ISRC SEWUD0600801
INDEX 01 00:00:00
FILE "02 - Balatron.wav" WAVE
TRACK 02 AUDIO
TITLE "Balatron"
ISRC SEWUD0600802
INDEX 01 00:00:00
TRACK 03 AUDIO
TITLE "Amorous Parade"
ISRC SEWUD0600803
INDEX 00 04:07:26
FILE "03 - Amorous Parade.wav" WAVE
INDEX 01 00:00:00
FILE "04 - Interlocutor.wav" WAVE
TRACK 04 AUDIO
TITLE "Interlocutor"
ISRC SEWUD0600804
INDEX 01 00:00:00
FILE "05 - Maboroshi.wav" WAVE
TRACK 05 AUDIO
TITLE "Maboroshi"
ISRC SEWUD0600805
INDEX 01 00:00:00
FILE "06 - Ornitheology.wav" WAVE
TRACK 06 AUDIO
TITLE "Ornitheology"
ISRC SEWUD0600806
INDEX 01 00:00:00
TRACK 07 AUDIO
TITLE "Solitude Amidst the Suns"
ISRC SEWUD0600807
INDEX 00 04:05:14
FILE "07 - Solitude Amidst the Suns.wav" WAVE
INDEX 01 00:00:00
TRACK 08 AUDIO
TITLE "Zoanthropy, Part 1"
ISRC SEWUD0600808
INDEX 00 03:12:48
FILE "08 - Zoanthropy, Part 1.wav" WAVE
INDEX 01 00:00:00
FILE "09 - Zoanthropy, Part 2.wav" WAVE
TRACK 09 AUDIO
TITLE "Zoanthropy, Part 2"
ISRC SEWUD0600809
INDEX 01 00:00:00
FILE "10 - The Glimmung.wav" WAVE
TRACK 10 AUDIO
TITLE "The Glimmung"
ISRC SEWUD0600810
INDEX 01 00:00:00
TRACK 11 AUDIO
TITLE "Asso di Picche"
ISRC SEWUD0600811
INDEX 00 03:26:15
FILE "11 - Asso di Picche.wav" WAVE
INDEX 01 00:00:00


Any questions -> support@pro-jazz.com. По всем вопросам пишите -> support@pro-jazz.com
06:36
271
Нет комментариев. Ваш будет первым!