Вы используете незарегистрированную версию компонента "Вкладки"!

Поиск

(Accordion/Fusion) Motion Trio - Metropolis - 2007, FLAC (tracks+.cue) lossless

Треклист:
Motion Trio / Metropolis
Жанр: Accordion/Fusion
Страна-производитель диска: Poland
Год издания диска: 2007
Издатель (лейбл): Akordeonus Records
Страна: Poland
Аудио кодек: FLAC (*.flac)
Тип рипа: tracks+.cue
Битрейт аудио: lossless
Продолжительность: 48:34
Источник (релизер): интернет
Наличие сканов в содержимом раздачи: нет
Треклист:
01. Hostel – Cracow 3:54
02. Sunrise Dance – Islamabad 5:49
03. Yellow Trabant – Berlin 3:38
04. DJ Chicken – Moscow 3:48
05. Libertin – Paris 3:52
06. Carrousel – Rio de Janeiro 6:00
07. Coffe Shop – Amsterdam 5:01
08. Chinatown – New York 3:23
09. U-Dance – Jerusalem 4:15
10. Proms – London 4:09
11. U-Dance (Bonus Track) 4:14
 
Лог создания рипа
Exact Audio Copy V0.99 prebeta 4 from 23. January 2008
Sprawozdanie ze zgrywania programem EAC z 12. Maja 2009, 22:49
Motion Trio / Metropolis
Uїyty napкd: TSSTcorpCD/DVDW TS-L632D Adapter: 0 ID: 0
Tryb odczytu: : Bezpieczny
Dokіadny strumieс : Tak
Neutralizacja bufora napкdu : Tak
Zwracanie bікdуw C2 : Nie
Korekta poіoїenia dla odczytu : 6
Nadczytywanie w obszarach LeadIn i LeadOut : Nie
Dopeіnianie cisz№ brakuj№cych prуbek : Tak
Usuwanie pocz№tkowych i koсcowych blokуw ciszy : Nie
Do przeliczenia sumy kontrolnej CRC uїywane s№ prуbki zerowe : Nie
Interfejs : Wewnкtrzny interfejs Win32 dla Windows NT i 2000
Przerwy : Dodane do poprzedniego nagrania
Uїyty format wyjњciowy : Koder uїytkownika
Wybrana przepіywnoњж bitуw : 1024 kBit/s
Jakoњж : Wysoka
Dodawanie znacznikуw ID3 : Nie
Kompresor linii poleceс : C:\Program Files\Exact Audio Copy\FLAC\FLAC.EXE
Dodatkowe opcje linii poleceс : -6 -V -T "ARTIST=%a" -T "TITLE=%t" -T "ALBUM=%g" -T "DATE=%y" -T "TRACKNUMBER=%n" -T "GENRE=%m" -T "COMMENT=%e" %s -o %d
TOC zgranej pіyty
Utwуr | Pocz№tek | Dіugoњж | Sektor pocz№tkowy | Sektor koсcowy
------------------------------------------------------------------
1 | 0:00.00 | 3:54.02 | 0 | 17551
2 | 3:54.02 | 5:49.27 | 17552 | 43753
3 | 9:43.29 | 3:38.60 | 43754 | 60163
4 | 13:22.14 | 3:49.48 | 60164 | 77386
5 | 17:11.62 | 3:51.74 | 77387 | 94785
6 | 21:03.61 | 6:00.12 | 94786 | 121797
7 | 27:03.73 | 5:01.33 | 121798 | 144405
8 | 32:05.31 | 3:23.57 | 144406 | 159687
9 | 35:29.13 | 4:16.39 | 159688 | 178926
10 | 39:45.52 | 4:34.21 | 178927 | 199497
11 | 44:19.73 | 4:14.58 | 199498 | 218605
Nagranie 1
Њcieїka pliku D:\_newsy\Motion Trio-Metropolis\01-Hostel - Cracow.wav
Dіugoњж przerwy 0:00:02.00
Poziom wysterowania 98.3 %
Jakoњж nagrania 100.0 %
CRC kopii 124AB32F
Zgrane akuratnie (wiarygodnoњж 1) [92EB7416]
Kopia bezbікdna
Nagranie 2
Њcieїka pliku D:\_newsy\Motion Trio-Metropolis\02-Sunrise Dance - Islamabad.wav
Poziom wysterowania 98.3 %
Jakoњж nagrania 100.0 %
CRC kopii 37907143
Zgrane akuratnie (wiarygodnoњж 1) [60745384]
Kopia bezbікdna
Nagranie 3
Њcieїka pliku D:\_newsy\Motion Trio-Metropolis\03-Yellow Trabant - Berlin.wav
Poziom wysterowania 98.3 %
Jakoњж nagrania 99.9 %
CRC kopii D0B15224
Zgrane akuratnie (wiarygodnoњж 1) [69A2B25F]
Kopia bezbікdna
Nagranie 4
Њcieїka pliku D:\_newsy\Motion Trio-Metropolis\04-DJ Chicken - Moscow.wav
Poziom wysterowania 98.3 %
Jakoњж nagrania 100.0 %
CRC kopii 6E093B7A
Zgrane akuratnie (wiarygodnoњж 1) [6985AB85]
Kopia bezbікdna
Nagranie 5
Њcieїka pliku D:\_newsy\Motion Trio-Metropolis\05-Libertin - Paris.wav
Dіugoњж przerwy 0:00:01.21
Poziom wysterowania 98.3 %
Jakoњж nagrania 100.0 %
CRC kopii 06E0ADF4
Zgrane akuratnie (wiarygodnoњж 1) [B1B4E80A]
Kopia bezbікdna
Nagranie 6
Њcieїka pliku D:\_newsy\Motion Trio-Metropolis\06-Carrousel - Rio de Janeiro.wav
Poziom wysterowania 98.3 %
Jakoњж nagrania 100.0 %
CRC kopii AB0C8D9E
Zgrane akuratnie (wiarygodnoњж 1) [53D0F9C8]
Kopia bezbікdna
Nagranie 7
Њcieїka pliku D:\_newsy\Motion Trio-Metropolis\07-Coffe Shop - Amsterdam.wav
Poziom wysterowania 98.3 %
Jakoњж nagrania 100.0 %
CRC kopii 0CB71992
Zgrane akuratnie (wiarygodnoњж 1) [1C0D55E9]
Kopia bezbікdna
Nagranie 8
Њcieїka pliku D:\_newsy\Motion Trio-Metropolis\08-Chinatown - New York.wav
Poziom wysterowania 98.3 %
Jakoњж nagrania 100.0 %
CRC kopii 5D352AA5
Zgrane akuratnie (wiarygodnoњж 1) [3B5E3187]
Kopia bezbікdna
Nagranie 9
Њcieїka pliku D:\_newsy\Motion Trio-Metropolis\09-U-Dance - Jerusalem.wav
Poziom wysterowania 98.3 %
Jakoњж nagrania 100.0 %
CRC kopii EE70ED2B
Zgrane akuratnie (wiarygodnoњж 1) [CC72F5C4]
Kopia bezbікdna
Nagranie 10
Њcieїka pliku D:\_newsy\Motion Trio-Metropolis\10-Proms - London.wav
Dіugoњж przerwy 0:00:01.20
Poziom wysterowania 98.3 %
Jakoњж nagrania 99.1 %
CRC kopii EDB863D1
Zgrane akuratnie (wiarygodnoњж 1) [C91E8AC5]
Kopia bezbікdna
Nagranie 11
Њcieїka pliku D:\_newsy\Motion Trio-Metropolis\11-U-Dance (Bonus Track).wav
Dіugoњж przerwy 0:00:24.72
Poziom wysterowania 98.3 %
Jakoњж nagrania 99.7 %
CRC kopii C4E15C6C
Zgrane akuratnie (wiarygodnoњж 1) [110934BD]
Kopia bezbікdna
Wszystkie nagrania zostaіy zgrane akuratnie
Nie byіo bікdуw
Koniec raportu
 
Содержание индексной карты (.CUE)
REM GENRE Jazz+Funk
REM DATE 2007
REM DISCID 8B0B620B
REM COMMENT "ExactAudioCopy v0.99pb4"
PERFORMER "Motion Trio"
TITLE "Metropolis"
FILE "Motion Trio-Metropolis\01-Hostel - Cracow.wav" WAVE
TRACK 01 AUDIO
TITLE "Hostel - Cracow"
PERFORMER "Motion Trio"
INDEX 01 00:00:00
FILE "Motion Trio-Metropolis\02-Sunrise Dance - Islamabad.wav" WAVE
TRACK 02 AUDIO
TITLE "Sunrise Dance - Islamabad"
PERFORMER "Motion Trio"
INDEX 01 00:00:00
FILE "Motion Trio-Metropolis\03-Yellow Trabant - Berlin.wav" WAVE
TRACK 03 AUDIO
TITLE "Yellow Trabant - Berlin"
PERFORMER "Motion Trio"
INDEX 01 00:00:00
FILE "Motion Trio-Metropolis\04-DJ Chicken - Moscow.wav" WAVE
TRACK 04 AUDIO
TITLE "DJ Chicken - Moscow"
PERFORMER "Motion Trio"
INDEX 01 00:00:00
TRACK 05 AUDIO
TITLE "Libertin - Paris"
PERFORMER "Motion Trio"
INDEX 00 03:48:27
FILE "Motion Trio-Metropolis\05-Libertin - Paris.wav" WAVE
INDEX 01 00:00:00
FILE "Motion Trio-Metropolis\06-Carrousel - Rio de Janeiro.wav" WAVE
TRACK 06 AUDIO
TITLE "Carrousel - Rio de Janeiro"
PERFORMER "Motion Trio"
INDEX 01 00:00:00
FILE "Motion Trio-Metropolis\07-Coffe Shop - Amsterdam.wav" WAVE
TRACK 07 AUDIO
TITLE "Coffe Shop - Amsterdam"
PERFORMER "Motion Trio"
INDEX 01 00:00:00
FILE "Motion Trio-Metropolis\08-Chinatown - New York.wav" WAVE
TRACK 08 AUDIO
TITLE "Chinatown - New York"
PERFORMER "Motion Trio"
INDEX 01 00:00:00
FILE "Motion Trio-Metropolis\09-U-Dance - Jerusalem.wav" WAVE
TRACK 09 AUDIO
TITLE "U-Dance - Jerusalem"
PERFORMER "Motion Trio"
INDEX 01 00:00:00
TRACK 10 AUDIO
TITLE "Proms - London"
PERFORMER "Motion Trio"
INDEX 00 04:15:19
FILE "Motion Trio-Metropolis\10-Proms - London.wav" WAVE
INDEX 01 00:00:00
TRACK 11 AUDIO
TITLE "U-Dance (Bonus Track)"
PERFORMER "Motion Trio"
INDEX 00 04:09:24
FILE "Motion Trio-Metropolis\11-U-Dance (Bonus Track).wav" WAVE
INDEX 01 00:00:00
 
Об альбоме (сборнике)
With this album, Motion Trio take us on a musical journey to ten big cities: Cracow, Islamabad, Berlin, Moscow, Paris, Rio de Janeiro, Amsterdam, New York, Jerusalem and London. Apart from the trio (Janusz Wojtarowicz, Paweł Baranek, Marcin Gałażyn), there are three guests on „Metropolis“: Radzimir Dębski (piano Rhodes), Michał Rosicki (bells) and Arek Skolik (drums).
The first track - „Hostel - Cracow“ trails very sluggishly and reflects the artistic atmosphere of Cracow. The musicians, by means of tones, managed to describe the home city very successfully. „Sunrise Dance - Islamabad“ refers to the musical culture of the Middle East and has got a distinct melodic line. „Yellow Trabant - Berlin“ is about a very popular car produced in the German Democratic Republic. Motion Trio tell about this cult car with the greatest artistry. „DJ Chicken - Moscow“ is a humorous composition played with amusing virtuosity. „Libertin - Paris“ illustrates a sunny atmosphere of the French capital that lives without haste, madness and pursuit of time. „Carrousel - Rio de Janeiro“ is a lively and invigorating instrumental with references to techno beats and including an interesting accordion bellows drumming. „Coffee Shop - Amsterdam“ includes many hypnotic tones which are really addicitve. „Chinatown - New York“ has some Asian references and represents the people who dart around like ants. „U-Dance - Jerusalem“ is both contrasting as well as controversial track, since the references to the Holy Land are juxtaposed with techno music. But there is no doubt that it is a great hit! „Proms - London“ is played in majestic and solemn tone. Motion Trio’s music is almost always acoustic, but this time they make the exception to the rule and play another version of „U-Dance“ (bonus track) with electronic effects and drums by Arek Skolik. It can be smoothly played at a techno party.
This is another time when the musicians of Motion Trio show themselves as versatile and world class accordion wizards. They are the accordion avantgarde!
 
Состав
Janusz Wojtarowicz - lead accordion
Pawel Baranek - accordion
Marcin Galazyn - accordion
По всем вопросам пишите личное сообщение пользователю M0p94ok.
06:38
227
Нет комментариев. Ваш будет первым!