Вы используете незарегистрированную версию компонента "Вкладки"!

Поиск

(Modern Creative, Avant-Garde Jazz, Guitar Jazz) Christy Doran - Music for Two Basses, Electric Guitar and Drums - 1990, FLAC (tracks+.cue), lossless

Треклист:
Christy Doran / Music for Two Basses, Electric Guitar and Drums
Жанр: Modern Creative, Avant-Garde Jazz, Guitar Jazz
Страна-производитель диска: Luzern, Switzerland
Год издания диска: 1990
Издатель (лейбл): ECM
Номер по каталогу: 1436
Страна: Dublin, Ireland - Lucerne, Switzerland
Аудиокодек: FLAC (*.flac)
Тип рипа: tracks+.cue
Битрейт аудио: lossless
Продолжительность: 00:41:09
Источник (релизер): mishka1981
Наличие сканов в содержимом раздачи: да
Треклист:
01. Siren [08:37]
02. Chemistries I [06:38]
03. Collage [04:51]
04. Chemistries II [03:42]
05. Ma Perche [05:15]
06. 'Seen A Man About A Dog [02:27]
07. SCD [06:16]
08. U7 [03:23]
 
Лог создания рипа
Exact Audio Copy V1.0 beta 1 from 15. November 2010
EAC extraction logfile from 7. September 2011, 13:30
Christy Doran, Fredy Studer / Musik fur zwei Kontrabasse, Gitarre & Schlagzeug
Used drive : TSSTcorpCDDVDW TS-L633A Adapter: 3 ID: 0
Read mode : Secure
Utilize accurate stream : Yes
Defeat audio cache : Yes
Make use of C2 pointers : No
Read offset correction : 6
Overread into Lead-In and Lead-Out : No
Fill up missing offset samples with silence : Yes
Delete leading and trailing silent blocks : No
Null samples used in CRC calculations : Yes
Used interface : Installed external ASPI interface
Gap handling : Appended to previous track
Used output format : User Defined Encoder
Selected bitrate : 896 kBit/s
Quality : High
Add ID3 tag : No
Command line compressor : C:\Program Files\Exact Audio Copy\FLAC\FLAC.EXE
Additional command line options : -8 -V -T "ARTIST=%a" -T "TITLE=%t" -T "ALBUM=%g" -T "DATE=%y" -T "TRACKNUMBER=%n" -T "TOTALTRACKS=%x" -T "GENRE=%m" -T "ALBUMARTIST=%v" -T "ALBUM ARTIST=%v" -T "COMMENT=EAC Secure Mode, Test & Copy, AccurateRip, FLAC -8" %s
TOC of the extracted CD
Track | Start | Length | Start sector | End sector
---------------------------------------------------------
1 | 0:00.33 | 8:39.25 | 33 | 38982
2 | 8:39.58 | 6:39.12 | 38983 | 68919
3 | 15:18.70 | 4:54.63 | 68920 | 91032
4 | 20:13.58 | 3:46.50 | 91033 | 108032
5 | 24:00.33 | 5:19.25 | 108033 | 131982
6 | 29:19.58 | 2:31.62 | 131983 | 143369
7 | 31:51.45 | 6:18.63 | 143370 | 171782
8 | 38:10.33 | 3:23.62 | 171783 | 187069
Track 1
Filename C:\MY RIPS\01 - Siren.wav
Pre-gap length 0:00:02.33
Peak level 71.3 %
Extraction speed 1.1 X
Track quality 99.9 %
Test CRC 4CC0FA26
Copy CRC 4CC0FA26
Accurately ripped (confidence 10) [76BDB479]
Copy OK
Track 2
Filename C:\MY RIPS\02 - Chemistries I.wav
Pre-gap length 0:00:01.63
Peak level 63.1 %
Extraction speed 1.4 X
Track quality 100.0 %
Test CRC 8D5F449C
Copy CRC 8D5F449C
Accurately ripped (confidence 10) [11707BB4]
Copy OK
Track 3
Filename C:\MY RIPS\03 - Collage.wav
Pre-gap length 0:00:01.00
Peak level 72.4 %
Extraction speed 1.2 X
Track quality 99.9 %
Test CRC 5BC91C1F
Copy CRC 5BC91C1F
Accurately ripped (confidence 10) [FB90919B]
Copy OK
Track 4
Filename C:\MY RIPS\04 - Chemistries II.wav
Pre-gap length 0:00:03.25
Peak level 67.6 %
Extraction speed 1.5 X
Track quality 100.0 %
Test CRC CFDB5A6D
Copy CRC CFDB5A6D
Accurately ripped (confidence 10) [00AB9103]
Copy OK
Track 5
Filename C:\MY RIPS\05 - Ma Perche.wav
Pre-gap length 0:00:04.00
Peak level 71.7 %
Extraction speed 1.7 X
Track quality 100.0 %
Test CRC 0ED67C8F
Copy CRC 0ED67C8F
Accurately ripped (confidence 10) [26FBF27B]
Copy OK
Track 6
Filename C:\MY RIPS\06 - 'Seen A Man About A Dog.wav
Pre-gap length 0:00:04.00
Peak level 66.4 %
Extraction speed 1.6 X
Track quality 100.0 %
Test CRC 585FF7B2
Copy CRC 585FF7B2
Accurately ripped (confidence 10) [BE7A9D9D]
Copy OK
Track 7
Filename C:\MY RIPS\07 - SCD.wav
Pre-gap length 0:00:04.25
Peak level 72.3 %
Extraction speed 1.9 X
Track quality 100.0 %
Test CRC 7AA1FF86
Copy CRC 7AA1FF86
Accurately ripped (confidence 10) [014BAD43]
Copy OK
Track 8
Filename C:\MY RIPS\08 - U7.wav
Pre-gap length 0:00:02.50
Peak level 71.9 %
Extraction speed 1.8 X
Track quality 100.0 %
Test CRC 7945DEFE
Copy CRC 7945DEFE
Accurately ripped (confidence 10) [9146AB88]
Copy OK
All tracks accurately ripped
No errors occurred
End of status report
==== Log checksum 3EF9FB96F7F5D7E0B40491B18208D6A3ABDB678F8A7E20508105AA432B05EB1D ====
 
Содержание индексной карты (.CUE)
REM GENRE "Contemporary Jazz"
REM DATE 1990
REM DISCID 5509BE08
REM COMMENT "ExactAudioCopy v1.0b1"
PERFORMER "Christy Doran, Fredy Studer"
TITLE "Musik fur zwei Kontrabasse, Gitarre & Schlagzeug"
FILE "01 - Siren.wav" WAVE
TRACK 01 AUDIO
TITLE "Siren"
PERFORMER "Christy Doran, Fredy Studer"
PREGAP 00:00:33
INDEX 01 00:00:00
TRACK 02 AUDIO
TITLE "Chemistries I"
PERFORMER "Christy Doran, Fredy Studer"
INDEX 00 08:37:37
FILE "02 - Chemistries I.wav" WAVE
INDEX 01 00:00:00
TRACK 03 AUDIO
TITLE "Collage"
PERFORMER "Christy Doran, Fredy Studer"
INDEX 00 06:38:12
FILE "03 - Collage.wav" WAVE
INDEX 01 00:00:00
TRACK 04 AUDIO
TITLE "Chemistries II"
PERFORMER "Christy Doran, Fredy Studer"
INDEX 00 04:51:38
FILE "04 - Chemistries II.wav" WAVE
INDEX 01 00:00:00
TRACK 05 AUDIO
TITLE "Ma Perche"
PERFORMER "Christy Doran, Fredy Studer"
INDEX 00 03:42:50
FILE "05 - Ma Perche.wav" WAVE
INDEX 01 00:00:00
TRACK 06 AUDIO
TITLE "'Seen A Man About A Dog"
PERFORMER "Christy Doran, Fredy Studer"
INDEX 00 05:15:25
FILE "06 - 'Seen A Man About A Dog.wav" WAVE
INDEX 01 00:00:00
TRACK 07 AUDIO
TITLE "SCD"
PERFORMER "Christy Doran, Fredy Studer"
INDEX 00 02:27:37
FILE "07 - SCD.wav" WAVE
INDEX 01 00:00:00
TRACK 08 AUDIO
TITLE "U7"
PERFORMER "Christy Doran, Fredy Studer"
INDEX 00 06:16:13
FILE "08 - U7.wav" WAVE
INDEX 01 00:00:00
 
Состав
Fredy Studer (drums, percussion); Olivier Magnenat (double bass); Christy Doran (guitar, electric guitar); Bobby Burri (double bass).
Any questions -> support@pro-jazz.com. По всем вопросам пишите -> support@pro-jazz.com
16:35
161
Нет комментариев. Ваш будет первым!