Вы используете незарегистрированную версию компонента "Вкладки"!

Поиск

(Free Jazz, Free Improvisation) Frode Gjerstad and the Circulasione Totale Orchestra - Borealis - 1998, FLAC (image+.cue), lossless

(Free Jazz, Free Improvisation) Frode Gjerstad and the Circulasione Totale Orchestra - Borealis - 1998, FLAC (image+.cue), lossless
Треклист:
Frode Gjerstad and the Circulasione Totale Orchestra / Borealis
Жанр: Free Jazz, Free Improvisation
Страна-производитель диска: US
Год издания диска: 1998
Издатель (лейбл): Cadence Jazz Records
Номер по каталогу: CJR 1091
Аудиокодек: FLAC (*.flac)
Тип рипа: image+.cue
Битрейт аудио: lossless
Продолжительность: 62:51
Источник (релизер): cd
Наличие сканов в содержимом раздачи: нет
Треклист:
1 Borealis 19:07
2 Is 5:52
3 The Wind 20:56
4 Blowing 11:31
5 From The North 5:07
 
Лог создания рипа
Exact Audio Copy V1.0 beta 2 from 29. April 2011
EAC extraction logfile from 4. May 2013, 12:58
Frode Gjerstad / Borealis
Used drive : Optiarc DVD RW AD-7170A Adapter: 0 ID: 0
Read mode : Secure
Utilize accurate stream : Yes
Defeat audio cache : Yes
Make use of C2 pointers : No
Read offset correction : 48
Overread into Lead-In and Lead-Out : No
Fill up missing offset samples with silence : Yes
Delete leading and trailing silent blocks : No
Null samples used in CRC calculations : Yes
Used interface : Native Win32 interface for Win NT & 2000
Used output format : User Defined Encoder
Selected bitrate : 320 kBit/s
Quality : High
Add ID3 tag : No
Command line compressor : C:\Program Files\Exact Audio Copy\Flac\flac.exe
Additional command line options : -V -8 -T "Date=%year%" -T "Genre=%genre%" %source%
TOC of the extracted CD
Track | Start | Length | Start sector | End sector
---------------------------------------------------------
1 | 0:00.00 | 19:10.35 | 0 | 86284
2 | 19:10.35 | 5:52.36 | 86285 | 112720
3 | 25:02.71 | 20:58.08 | 112721 | 207078
4 | 46:01.04 | 11:34.41 | 207079 | 259169
5 | 57:35.45 | 5:13.32 | 259170 | 282676
Range status and errors
Selected range
Filename K:\ЕАС\Frode Gjerstad - Borealis.wav
Peak level 100.0 %
Extraction speed 1.8 X
Range quality 99.9 %
Test CRC 78A74274
Copy CRC 78A74274
Copy OK
No errors occurred
AccurateRip summary
Track 1 accurately ripped (confidence 1) [B6E52756] (AR v1)
Track 2 accurately ripped (confidence 1) [1276C067] (AR v1)
Track 3 accurately ripped (confidence 1) [818A8B87] (AR v1)
Track 4 accurately ripped (confidence 1) [4039E311] (AR v1)
Track 5 accurately ripped (confidence 1) [79FDE04E] (AR v1)
All tracks accurately ripped
End of status report
==== Log checksum 286FC31FF80D27405D829761620252A97964F6D2D5894314DB390A83938A2C89 ====
 
Содержание индексной карты (.CUE)
REM GENRE Jazz
REM DATE 1998
REM DISCID 3A0EB905
REM COMMENT "ExactAudioCopy v1.0b2"
PERFORMER "Frode Gjerstad"
TITLE "Borealis"
FILE "Frode Gjerstad - Borealis.flac" WAVE
TRACK 01 AUDIO
TITLE "Borealis"
PERFORMER "Frode Gjerstad"
ISRC 000000000000
INDEX 01 00:00:00
TRACK 02 AUDIO
TITLE "is"
PERFORMER "Frode Gjerstad"
ISRC 000000000000
INDEX 01 19:10:35
TRACK 03 AUDIO
TITLE "the wind"
PERFORMER "Frode Gjerstad"
ISRC 000000000000
INDEX 01 25:02:71
TRACK 04 AUDIO
TITLE "blowing"
PERFORMER "Frode Gjerstad"
ISRC 000000000000
INDEX 01 46:01:04
TRACK 05 AUDIO
TITLE "from the North"
PERFORMER "Frode Gjerstad"
ISRC 000000000000
INDEX 01 57:35:45
Доп. информация: Recorded at NRK Studio, Stavanger, Feb. 2, 1998
 
Состав
Double Bass – John Lilja, Oyvind Storesund
Drums – Endre Landsnes, Paal Nilssen-Love
Guitar – Oyvind Torvund
Tenor Saxophone – Frode Gjerstad
Trumpet – Didrik Ingvaldsen
Any questions -> support@pro-jazz.com. По всем вопросам пишите -> support@pro-jazz.com
16:34
149
Нет комментариев. Ваш будет первым!