Вы используете незарегистрированную версию компонента "Вкладки"!

Поиск

(Avant-Garde Jazz, Free Jazz, Saxophone Jazz) David Murray - Jazzosaurus Rex - 1993, APE (image+.cue), lossless

Треклист:
David Murray / Jazzosaurus Rex
Жанр: Avant-Garde Jazz, Free Jazz, Saxophone Jazz
Страна-производитель диска: USA
Год издания диска: 1993
Издатель (лейбл): Red Baron
Номер по каталогу: JK 57336
Страна: USA Berkeley, CA
Аудиокодек: APE (*.ape)
Тип рипа: image+.cue
Битрейт аудио: lossless
Продолжительность: 00:50:28
Источник (релизер): dreadbull
Наличие сканов в содержимом раздачи: да
Треклист:
01. Eternal Triangle [07:18]
02. Chelsea Bridge [11:25]
03. Jazzosaurus Rex [06:20]
04. Mingus in the Poconos [09:51]
05. Dinosaur Park Blues [05:31]
06. Ballad for David [05:50]
07. Now He's Miles Away [04:48]
 
Лог создания рипа
EAC extraction logfile from 5. July 2011, 20:07 for CD
David Murray / Jazzosaurus Rex
Used drive : ASUS DRW-22B2L Adapter: 0 ID: 1
Read mode : Secure with NO C2, accurate stream, disable cache
Read offset correction : 6
Overread into Lead-In and Lead-Out : No
Used output format : Internal WAV Routines
44.100 Hz; 16 Bit; Stereo
Other options :
Fill up missing offset samples with silence : Yes
Delete leading and trailing silent blocks : No
Installed external ASPI interface
Range status and errors
Selected range
Filename D:\Donkey Files\David Murray - JAZZosaurus Rex (1993, Red Baron) [eac-ape-scans] byDrBull\CDImage.wav
Peak level 100.0 %
Range quality 100.0 %
CRC BF030D27
Copy OK
No errors occured
End of status report
 
Содержание индексной карты (.CUE)
PERFORMER "David Murray"
TITLE "Jazzosaurus Rex"
FILE "CDImage.wav" WAVE
TRACK 01 AUDIO
TITLE "Eternal Triangle"
PERFORMER "David Murray"
INDEX 01 00:00:00
TRACK 02 AUDIO
TITLE "Chelsea Bridge"
PERFORMER "David Murray"
INDEX 00 07:15:30
INDEX 01 07:18:13
TRACK 03 AUDIO
TITLE "Jazzosaurus Rex"
PERFORMER "David Murray"
INDEX 00 18:41:08
INDEX 01 18:44:10
TRACK 04 AUDIO
TITLE "Mingus in the Poconos"
PERFORMER "David Murray"
INDEX 00 25:01:33
INDEX 01 25:04:10
TRACK 05 AUDIO
TITLE "Dinosaur Park Blues"
PERFORMER "David Murray"
INDEX 00 34:52:00
INDEX 01 34:55:13
TRACK 06 AUDIO
TITLE "Ballad for David"
PERFORMER "David Murray"
INDEX 00 40:23:53
INDEX 01 40:26:13
TRACK 07 AUDIO
TITLE "Now He's Miles Away"
PERFORMER "David Murray"
INDEX 00 46:12:68
INDEX 01 46:16:13
 
Состав
David Murray (tenor saxophone);
John Hicks (piano);
Ray Drummond (bass);
Andrew Cyrille (drums);
G'Ar (spoken vocals on #7)
По всем вопросам пишите личное сообщение пользователю M0p94ok.
16:34
160
Нет комментариев. Ваш будет первым!