Вы используете незарегистрированную версию компонента "Вкладки"!

Поиск

(Free Jazz) Frode Gjerstad, Anders Hana, Morten Olsen, Per Zanussi - Born To Collapse - 2004, FLAC (tracks+.cue), lossless

(Free Jazz) Frode Gjerstad, Anders Hana, Morten Olsen, Per Zanussi - Born To Collapse - 2004, FLAC (tracks+.cue), lossless
Треклист:
Frode Gjerstad, Anders Hana, Morten Olsen, Per Zanussi / Born To Collapse
Жанр: Free Jazz
Страна-производитель диска: Norway
Год издания диска: 2004
Издатель (лейбл): Circulasione Totale
Номер по каталогу: CTCD 7
Аудиокодек: FLAC (*.flac)
Тип рипа: tracks+.cue
Битрейт аудио: lossless
Продолжительность: 62:46
Источник (релизер): CD
Наличие сканов в содержимом раздачи: да
Треклист:
01 - Born To Collapse Part 1 (28:35)
02 - Born To Collapse Part 2 (18:21)
03 - Born To Collapse Part 3 (15:42)
 
Лог создания рипа
Exact Audio Copy V1.0 beta 2 from 29. April 2011
EAC extraction logfile from 7. September 2011, 17:50
Frode Gjerstad, Anders Hana, Morten Olsen, Per Zanussi / Born To Collapse
Used drive : Optiarc DVD RW AD-7240S Adapter: 2 ID: 0
Read mode : Secure
Utilize accurate stream : Yes
Defeat audio cache : Yes
Make use of C2 pointers : No
Read offset correction : 48
Overread into Lead-In and Lead-Out : No
Fill up missing offset samples with silence : Yes
Delete leading and trailing silent blocks : No
Null samples used in CRC calculations : Yes
Used interface : Native Win32 interface for Win NT & 2000
Gap handling : Appended to previous track
Used output format : User Defined Encoder
Selected bitrate : 768 kBit/s
Quality : High
Add ID3 tag : No
Command line compressor : C:\Program Files\Exact Audio Copy\FLAC\FLAC.EXE
Additional command line options : -6 -V -T "ARTIST=%artist%" -T "TITLE=%title%" -T "ALBUM=%albumtitle%" -T "DATE=%year%" -T "TRACKNUMBER=%tracknr%" -T "GENRE=%genre%" -T "COMMENT=%comment%" -T "BAND=%albuminterpret%" -T "COMPOSER=%composer%" %haslyrics%--ta
TOC of the extracted CD
Track | Start | Length | Start sector | End sector
---------------------------------------------------------
1 | 0:00.00 | 28:35.53 | 0 | 128677
2 | 28:35.53 | 18:21.52 | 128678 | 211304
3 | 46:57.30 | 15:42.06 | 211305 | 281960
Track 1
Filename C:\Frode Gjerstad, Anders Hana, Morten Olsen, Per Zanussi - Born To Collapse (2004)\01 Born To Collapse Part 1.wav
Pre-gap length 0:00:02.00
Peak level 95.5 %
Extraction speed 3.3 X
Track quality 100.0 %
Test CRC F2D9DA13
Copy CRC F2D9DA13
Track not present in AccurateRip database
Copy OK
Track 2
Filename C:\Frode Gjerstad, Anders Hana, Morten Olsen, Per Zanussi - Born To Collapse (2004)\02 Born To Collapse Part 2.wav
Pre-gap length 0:00:04.00
Peak level 95.5 %
Extraction speed 4.5 X
Track quality 100.0 %
Test CRC 172F1447
Copy CRC 172F1447
Track not present in AccurateRip database
Copy OK
Track 3
Filename C:\Frode Gjerstad, Anders Hana, Morten Olsen, Per Zanussi - Born To Collapse (2004)\03 Born To Collapse Part 3.wav
Pre-gap length 0:00:04.01
Peak level 95.5 %
Extraction speed 5.1 X
Track quality 100.0 %
Test CRC 18710000
Copy CRC 18710000
Track not present in AccurateRip database
Copy OK
None of the tracks are present in the AccurateRip database
No errors occurred
End of status report
==== Log checksum 333A7CAE5699AF941FF8C1BEF9F36A77E7A4C58DA593A863F3E4A48390AEB5E4 ====
 
Содержание индексной карты (.CUE)
REM GENRE Jazz
REM DATE 2004
REM DISCID 260EAF03
REM COMMENT "ExactAudioCopy v1.0b2"
PERFORMER "Frode Gjerstad, Anders Hana, Morten Olsen, Per Zanussi"
TITLE "Born To Collapse"
FILE "01 Born To Collapse Part 1.wav" WAVE
TRACK 01 AUDIO
TITLE "Born To Collapse Part 1"
PERFORMER "Frode Gjerstad, Anders Hana, Morten Olsen, Per Zanussi"
INDEX 01 00:00:00
TRACK 02 AUDIO
TITLE "Born To Collapse Part 2"
PERFORMER "Frode Gjerstad, Anders Hana, Morten Olsen, Per Zanussi"
INDEX 00 28:31:53
FILE "02 Born To Collapse Part 2.wav" WAVE
INDEX 01 00:00:00
TRACK 03 AUDIO
TITLE "Born To Collapse Part 3"
PERFORMER "Frode Gjerstad, Anders Hana, Morten Olsen, Per Zanussi"
INDEX 00 18:17:51
FILE "03 Born To Collapse Part 3.wav" WAVE
INDEX 01 00:00:00
 
Доп. информация
Recorded in concert at Cafe Sting, Stavanger, on December 27th 2003.
 
Об альбоме (сборнике)
Renegade Norwegian multi-reedman Frode Gjerstad takes charge of this woodwinds/guitar/bass/drums outing, which teems with shrieking lines, split tones and free improvisation. The album consists of three variations of the title piece. Especially through bassist Per Zanussi's live electronics and Anders Hana's chopping and slicing electric guitar lines, the music primarily occupies the red zone. Gjerstad performs on alto sax and clarinets, and the band opts for an acoustic-electric approach, yielding a wild and wooly ride that's unfettered by borders or strictly visualized regimens. Born to Collapse is not for the squeamish traditional jazz aficionado, however the concepts and improvisational encounters work out, given these musicians' willingness to sojourn into the unknown. They explore the twilight zone, so to speak, with an asymmetrically centered, balls-to-the-walls approach.
 
Состав
Frode Gjerstad - alto sax, clarinets
Anders Hana - electric guitar
Morten Olsen - drums
Per Zanussi - acoustic bass, live electronics
Any questions -> support@pro-jazz.com. По всем вопросам пишите -> support@pro-jazz.com
16:36
134
Нет комментариев. Ваш будет первым!