Вы используете незарегистрированную версию компонента "Вкладки"!

Поиск

(Modern Creative, Avant-Garde Jazz) [CD] Ståhls (Stahls) Trio (Mattias Ståhl, Joe Williamson, Christopher Cantillo) - Jag Skulle Bara Gå (Ga) Ut - 2013, FLAC (tracks+.cue), lossless

(Modern Creative, Avant-Garde Jazz) [CD] Ståhls (Stahls) Trio (Mattias Ståhl, Joe Williamson, Christopher Cantillo) - Jag Skulle Bara Gå (Ga) Ut - 2013, FLAC (tracks+.cue), lossless
Треклист:
Ståhls (Stahls) Trio (Mattias Ståhl, Joe Williamson, Christopher Cantillo) / Jag Skulle Bara Gå (Ga) Ut
Жанр: Modern Creative, Avant-Garde Jazz
Носитель: CD
Страна-производитель диска (релиза): Sweden
Год издания: 2013
Издатель (лейбл): Moserobie Music Production
Номер по каталогу: MMPCD087
Страна исполнителя (группы): Sweden
Аудиокодек: FLAC (*.flac)
Тип рипа: tracks+.cue
Битрейт аудио: lossless
Продолжительность: 00:49:27
Источник (релизер): bisonn @ soulseek
Наличие сканов в содержимом раздачи: нет
Треклист:
1. The Mooche (Duke Ellington) - 05:05
2. Sonny Boy Williamson (Christopher Cantillo, Joe Williamson, Mattias Ståhl) - 03:35
3. Did You Give the World Some Love Today, Baby (Norman Martin) - 04:09
4. Formaldehyde (Joe Williamson) - 05:11
5. Skobonka/The Healing Properties of the Orb Were Found to Be Exaggerated (Jan Johansson / Joe Williamson) - 06:36
6. Undervattensvals (From "Bamse") (Sten Carlberg) - 04:29
7. 10 Augusti (Jan Johansson) - 04:35
8. The Siamese Twin (Joe Williamson) - 05:49
9. I Was Only Going Out (Emil Svanängen) - 03:28
10. Satellites Are Spinning (Sun Ra) - 06:30
 
Лог создания рипа
X Lossless Decoder version 20131102 (145.0)
XLD extraction logfile from 2013-11-15 06:42:23 +0400
Ståhls Trio / Jag Skulle Bara Gå Ut
Used drive : HL-DT-ST DVDRW GX30N (revision RP09)
Media type : Pressed CD
Ripper mode : XLD Secure Ripper
Disable audio cache : OK for the drive with a cache less than 1375KiB
Make use of C2 pointers : NO
Read offset correction : 6
Max retry count : 100
Gap status : Analyzed, Appended (except HTOA)
TOC of the extracted CD
Track | Start | Length | Start sector | End sector
---------------------------------------------------------
1 | 00:00:00 | 05:04:50 | 0 | 22849
2 | 05:04:50 | 03:34:66 | 22850 | 38965
3 | 08:39:41 | 04:09:31 | 38966 | 57671
4 | 12:48:72 | 05:10:54 | 57672 | 80975
5 | 17:59:51 | 06:36:22 | 80976 | 110697
6 | 24:35:73 | 04:29:33 | 110698 | 130905
7 | 29:05:31 | 04:35:14 | 130906 | 151544
8 | 33:40:45 | 05:49:34 | 151545 | 177753
9 | 39:30:04 | 03:27:58 | 177754 | 193336
10 | 42:57:62 | 06:30:03 | 193337 | 222589
AccurateRip Summary
Disc not found in AccurateRip DB.
All Tracks
Album gain : -1.82 dB
Peak : 0.999969
Statistics
Read error : 0
Jitter error (maybe fixed) : 0
Retry sector count : 0
Damaged sector count : 0
Track 01
Filename : /Users/Shared/Grabbed/Stahls Trio - 2013 - Jag Skulle Bara Ga Ut [MP3 320]/01 - The Mooche.mp3
/Users/Shared/Grabbed/Stahls Trio - 2013 - Jag Skulle Bara Ga Ut [MP3 V0]/01 - The Mooche.mp3
/Users/Shared/Grabbed/Stahls Trio - 2013 - Jag Skulle Bara Ga Ut [FLAC]/01 - The Mooche.flac
Pre-gap length : 00:02:00
Track gain : 1.19 dB
Peak : 0.991943
CRC32 hash (test run) : D80285C8
CRC32 hash : D80285C8
CRC32 hash (skip zero) : 46C01081
AccurateRip v1 signature : 9B185DAE
AccurateRip v2 signature : 3184EFBC
->Track not present in AccurateRip database.
Statistics
Read error : 0
Jitter error (maybe fixed) : 0
Retry sector count : 0
Damaged sector count : 0
Track 02
Filename : /Users/Shared/Grabbed/Stahls Trio - 2013 - Jag Skulle Bara Ga Ut [MP3 320]/02 - Sonny Boy Williamson.mp3
/Users/Shared/Grabbed/Stahls Trio - 2013 - Jag Skulle Bara Ga Ut [MP3 V0]/02 - Sonny Boy Williamson.mp3
/Users/Shared/Grabbed/Stahls Trio - 2013 - Jag Skulle Bara Ga Ut [FLAC]/02 - Sonny Boy Williamson.flac
Pre-gap length : 00:03:58
Track gain : -1.76 dB
Peak : 0.999786
CRC32 hash (test run) : 064598BC
CRC32 hash : 064598BC
CRC32 hash (skip zero) : DB90E9C8
AccurateRip v1 signature : 204FA2A3
AccurateRip v2 signature : F91ACB44
->Track not present in AccurateRip database.
Statistics
Read error : 0
Jitter error (maybe fixed) : 0
Retry sector count : 0
Damaged sector count : 0
Track 03
Filename : /Users/Shared/Grabbed/Stahls Trio - 2013 - Jag Skulle Bara Ga Ut [MP3 320]/03 - Did you give the world some love today, baby.mp3
/Users/Shared/Grabbed/Stahls Trio - 2013 - Jag Skulle Bara Ga Ut [MP3 V0]/03 - Did you give the world some love today, baby.mp3
/Users/Shared/Grabbed/Stahls Trio - 2013 - Jag Skulle Bara Ga Ut [FLAC]/03 - Did you give the world some love today, baby.flac
Pre-gap length : 00:00:69
Track gain : -5.07 dB
Peak : 0.999969
CRC32 hash (test run) : 23A22ACB
CRC32 hash : 23A22ACB
CRC32 hash (skip zero) : 3BE4C86F
AccurateRip v1 signature : B5529680
AccurateRip v2 signature : 43E624F7
->Track not present in AccurateRip database.
Statistics
Read error : 0
Jitter error (maybe fixed) : 0
Retry sector count : 0
Damaged sector count : 0
Track 04
Filename : /Users/Shared/Grabbed/Stahls Trio - 2013 - Jag Skulle Bara Ga Ut [MP3 320]/04 - Formaldehyde.mp3
/Users/Shared/Grabbed/Stahls Trio - 2013 - Jag Skulle Bara Ga Ut [MP3 V0]/04 - Formaldehyde.mp3
/Users/Shared/Grabbed/Stahls Trio - 2013 - Jag Skulle Bara Ga Ut [FLAC]/04 - Formaldehyde.flac
Pre-gap length : 00:02:30
Track gain : 0.99 dB
Peak : 0.891205
CRC32 hash (test run) : 71D94B0D
CRC32 hash : 71D94B0D
CRC32 hash (skip zero) : B37E60E2
AccurateRip v1 signature : 4955D11D
AccurateRip v2 signature : 445C2370
->Track not present in AccurateRip database.
Statistics
Read error : 0
Jitter error (maybe fixed) : 0
Retry sector count : 0
Damaged sector count : 0
Track 05
Filename : /Users/Shared/Grabbed/Stahls Trio - 2013 - Jag Skulle Bara Ga Ut [MP3 320]/05 - Skobonka & The healing properties of the orb were found to be exaggerated.mp3
/Users/Shared/Grabbed/Stahls Trio - 2013 - Jag Skulle Bara Ga Ut [MP3 V0]/05 - Skobonka & The healing properties of the orb were found to be exaggerated.mp3
/Users/Shared/Grabbed/Stahls Trio - 2013 - Jag Skulle Bara Ga Ut [FLAC]/05 - Skobonka & The healing properties of the orb were found to be exaggerated.flac
Pre-gap length : 00:02:20
Track gain : 0.28 dB
Peak : 0.974030
CRC32 hash (test run) : 3B281462
CRC32 hash : 3B281462
CRC32 hash (skip zero) : F997C78D
AccurateRip v1 signature : 94E8267A
AccurateRip v2 signature : 1F110F22
->Track not present in AccurateRip database.
Statistics
Read error : 0
Jitter error (maybe fixed) : 0
Retry sector count : 0
Damaged sector count : 0
Track 06
Filename : /Users/Shared/Grabbed/Stahls Trio - 2013 - Jag Skulle Bara Ga Ut [MP3 320]/06 - Undervattensvals (from "Bamse").mp3
/Users/Shared/Grabbed/Stahls Trio - 2013 - Jag Skulle Bara Ga Ut [MP3 V0]/06 - Undervattensvals (from "Bamse").mp3
/Users/Shared/Grabbed/Stahls Trio - 2013 - Jag Skulle Bara Ga Ut [FLAC]/06 - Undervattensvals (from "Bamse").flac
Pre-gap length : 00:02:00
Track gain : -0.90 dB
Peak : 0.999969
CRC32 hash (test run) : 7DAD8D17
CRC32 hash : 7DAD8D17
CRC32 hash (skip zero) : 153CB50D
AccurateRip v1 signature : 480B72BF
AccurateRip v2 signature : 8F8B51E2
->Track not present in AccurateRip database.
Statistics
Read error : 0
Jitter error (maybe fixed) : 0
Retry sector count : 0
Damaged sector count : 0
Track 07
Filename : /Users/Shared/Grabbed/Stahls Trio - 2013 - Jag Skulle Bara Ga Ut [MP3 320]/07 - 10 augusti.mp3
/Users/Shared/Grabbed/Stahls Trio - 2013 - Jag Skulle Bara Ga Ut [MP3 V0]/07 - 10 augusti.mp3
/Users/Shared/Grabbed/Stahls Trio - 2013 - Jag Skulle Bara Ga Ut [FLAC]/07 - 10 augusti.flac
Pre-gap length : 00:02:21
Track gain : -3.83 dB
Peak : 0.988647
CRC32 hash (test run) : 37C6AD11
CRC32 hash : 37C6AD11
CRC32 hash (skip zero) : FCED0C4C
AccurateRip v1 signature : 3BACCBAE
AccurateRip v2 signature : A022D178
->Track not present in AccurateRip database.
Statistics
Read error : 0
Jitter error (maybe fixed) : 0
Retry sector count : 0
Damaged sector count : 0
Track 08
Filename : /Users/Shared/Grabbed/Stahls Trio - 2013 - Jag Skulle Bara Ga Ut [MP3 320]/08 - The siamese twin.mp3
/Users/Shared/Grabbed/Stahls Trio - 2013 - Jag Skulle Bara Ga Ut [MP3 V0]/08 - The siamese twin.mp3
/Users/Shared/Grabbed/Stahls Trio - 2013 - Jag Skulle Bara Ga Ut [FLAC]/08 - The siamese twin.flac
Pre-gap length : 00:02:31
Track gain : -0.24 dB
Peak : 0.971832
CRC32 hash (test run) : 4004A094
CRC32 hash : 4004A094
CRC32 hash (skip zero) : C5614DC1
AccurateRip v1 signature : B11A94CA
AccurateRip v2 signature : C61DC735
->Track not present in AccurateRip database.
Statistics
Read error : 0
Jitter error (maybe fixed) : 0
Retry sector count : 0
Damaged sector count : 0
Track 09
Filename : /Users/Shared/Grabbed/Stahls Trio - 2013 - Jag Skulle Bara Ga Ut [MP3 320]/09 - I was only going out.mp3
/Users/Shared/Grabbed/Stahls Trio - 2013 - Jag Skulle Bara Ga Ut [MP3 V0]/09 - I was only going out.mp3
/Users/Shared/Grabbed/Stahls Trio - 2013 - Jag Skulle Bara Ga Ut [FLAC]/09 - I was only going out.flac
Pre-gap length : 00:01:34
Track gain : -2.22 dB
Peak : 0.881073
CRC32 hash (test run) : D781546A
CRC32 hash : D781546A
CRC32 hash (skip zero) : CA43FED7
AccurateRip v1 signature : 962DAF9B
AccurateRip v2 signature : BFBEFEBC
->Track not present in AccurateRip database.
Statistics
Read error : 0
Jitter error (maybe fixed) : 0
Retry sector count : 0
Damaged sector count : 0
Track 10
Filename : /Users/Shared/Grabbed/Stahls Trio - 2013 - Jag Skulle Bara Ga Ut [MP3 320]/10 - Satellites are spinning.mp3
/Users/Shared/Grabbed/Stahls Trio - 2013 - Jag Skulle Bara Ga Ut [MP3 V0]/10 - Satellites are spinning.mp3
/Users/Shared/Grabbed/Stahls Trio - 2013 - Jag Skulle Bara Ga Ut [FLAC]/10 - Satellites are spinning.flac
Pre-gap length : 00:03:07
Track gain : -1.24 dB
Peak : 0.999969
CRC32 hash (test run) : D325269B
CRC32 hash : D325269B
CRC32 hash (skip zero) : 9969B3D7
AccurateRip v1 signature : 1EF4C886
AccurateRip v2 signature : C7DEFC23
->Track not present in AccurateRip database.
Statistics
Read error : 0
Jitter error (maybe fixed) : 0
Retry sector count : 0
Damaged sector count : 0
No errors occurred
End of status report
 
Содержание индексной карты (.CUE)
TITLE "Jag Skulle Bara Gå Ut"
PERFORMER "Ståhls Trio"
CATALOG 7320470180587
REM GENRE "Free Jazz"
REM DATE "2013"
REM DISCID 7C0B970A
REM REPLAYGAIN_ALBUM_GAIN -1.82 dB
REM REPLAYGAIN_ALBUM_PEAK 0.999969
FILE "01 - The Mooche.flac" WAVE
TRACK 01 AUDIO
TITLE "The Mooche"
PERFORMER "Ståhls Trio"
ISRC SEWUD1300601
REM REPLAYGAIN_TRACK_GAIN 1.19 dB
REM REPLAYGAIN_TRACK_PEAK 0.991943
INDEX 01 00:00:00
TRACK 02 AUDIO
TITLE "Sonny Boy Williamson"
PERFORMER "Ståhls Trio"
ISRC SEWUD1300602
REM REPLAYGAIN_TRACK_GAIN -1.76 dB
REM REPLAYGAIN_TRACK_PEAK 0.999786
INDEX 00 05:00:67
FILE "02 - Sonny Boy Williamson.flac" WAVE
INDEX 01 00:00:00
TRACK 03 AUDIO
TITLE "Did you give the world some love today, baby"
PERFORMER "Ståhls Trio"
ISRC SEWUD1300603
REM REPLAYGAIN_TRACK_GAIN -5.07 dB
REM REPLAYGAIN_TRACK_PEAK 0.999969
INDEX 00 03:33:72
FILE "03 - Did you give the world some love today, baby.flac" WAVE
INDEX 01 00:00:00
TRACK 04 AUDIO
TITLE "Formaldehyde"
PERFORMER "Ståhls Trio"
ISRC SEWUD1300604
REM REPLAYGAIN_TRACK_GAIN 0.99 dB
REM REPLAYGAIN_TRACK_PEAK 0.891205
INDEX 00 04:07:01
FILE "04 - Formaldehyde.flac" WAVE
INDEX 01 00:00:00
TRACK 05 AUDIO
TITLE "Skobonka + The healing properties of the orb were found to be exaggerated"
PERFORMER "Ståhls Trio"
ISRC SEWUD1300605
REM REPLAYGAIN_TRACK_GAIN 0.28 dB
REM REPLAYGAIN_TRACK_PEAK 0.974030
INDEX 00 05:08:34
FILE "05 - Skobonka & The healing properties of the orb were found to be exaggerated.flac" WAVE
INDEX 01 00:00:00
TRACK 06 AUDIO
TITLE "Undervattensvals (from "Bamse")"
PERFORMER "Ståhls Trio"
ISRC SEWUD1300606
REM REPLAYGAIN_TRACK_GAIN -0.90 dB
REM REPLAYGAIN_TRACK_PEAK 0.999969
INDEX 00 06:34:22
FILE "06 - Undervattensvals (from 'Bamse').flac" WAVE
INDEX 01 00:00:00
TRACK 07 AUDIO
TITLE "10 augusti"
PERFORMER "Ståhls Trio"
ISRC SEWUD1300607
REM REPLAYGAIN_TRACK_GAIN -3.83 dB
REM REPLAYGAIN_TRACK_PEAK 0.988647
INDEX 00 04:27:12
FILE "07 - 10 augusti.flac" WAVE
INDEX 01 00:00:00
TRACK 08 AUDIO
TITLE "The siamese twin"
PERFORMER "Ståhls Trio"
ISRC SEWUD1300608
REM REPLAYGAIN_TRACK_GAIN -0.24 dB
REM REPLAYGAIN_TRACK_PEAK 0.971832
INDEX 00 04:32:58
FILE "08 - The siamese twin.flac" WAVE
INDEX 01 00:00:00
TRACK 09 AUDIO
TITLE "I was only going out"
PERFORMER "Ståhls Trio"
ISRC SEWUD1300609
REM REPLAYGAIN_TRACK_GAIN -2.22 dB
REM REPLAYGAIN_TRACK_PEAK 0.881073
INDEX 00 05:48:00
FILE "09 - I was only going out.flac" WAVE
INDEX 01 00:00:00
TRACK 10 AUDIO
TITLE "Satellites are spinning"
PERFORMER "Ståhls Trio"
ISRC SEWUD1300610
REM REPLAYGAIN_TRACK_GAIN -1.24 dB
REM REPLAYGAIN_TRACK_PEAK 0.999969
INDEX 00 03:24:51
FILE "10 - Satellites are spinning.flac" WAVE
INDEX 01 00:00:00
Доп. информация:
 
front, 1650px
discogs.com
Recorded and mixed at Atlantis Studio, Stockholm, December 20-21, 2012 and May 16, 2013. Cover art by Joe Williamson.
 
Об исполнителе (группе)
Swedish vibes player Mattias Ståhl is the prominent Scandinavian mallet explorer in recent years. He is a wise composer and articulate improviser, well versed in jazz history on both sides of the Atlantic with a distinct melodic and rhythmic approach and sound. The sounds of Ståhl's vibes are integral to some of the most exciting bands in Sweden and Norway, like those of reed player Martin Küchen, Eirik Hegdal's Team Hegdal, pianist Cecilia Persson and Trondheim Jazz Orchestra.
 
Об альбоме (сборнике)
Stahl's new trio features like-minded, open and versatile collaborators—double bassist Joe Williamson and drummer Christopher Cantillo, who played together in the alternative trio The Inconvenience.
This project emphasizes the breadth of Ståhl's musical language and original compositions,from beginning with Duke Ellington's standard "The Mooche," to reworking the popular Swedish TV theme of composer Sten Carlberg,with a classic jazz composition of jazz pianist Jan Johansson. There is also a selection from the cult singer Doris, arranging a song of Swedish songwriter Emil Svanängen(known also as Lonely, Dear), with whom Ståhl worked, and a concluding, classic composition from Sun Ra.
The inventive interplay of this trio moves on few parallel courses. It is anchored with a clear swinging pulse, and the articulation is mostly melodic but within this seemingly conventional framework Ståhl, Williamson and Cantillo do wonders. They are busy varying and coloring the rhythm, introducing new sounds with objects and bows, exchanging lead roles while they cleverly build and disintegrate the tension. With this trio even the most familiar composition sounds fresh and different, very personal.
The trio's unique, tight rhythmic conception is featured on the energetic Doris' "Did You Give The World Some Love Today, Baby" where all musicians play leading roles, intensifying the theme. Williamson's "Formaldehyde" and "The Siamese Twins" highlight the lyrical and subtle side of the trio, carefully sketching almost abstract textures. Carlberg's "Undervattensvals (From Bamse)" unfolds like a story blurring a calm atmosphere with urgent, dark sonic elements. The rhythm of the title song, Svanängen's catchy "I Was Only Going Out" is fractured and patched again with the highly imaginative playing of Cantillo. The trio concludes with a fantastic arrangement of Sun Ra's "Satellites Are Spinning," true to the master's eccentric, adventurous sonic journeys but still rooted in the jazz legacy.
Symbolically, the Ra composition marks this excellent trio's raison d'être—tuned to a rich jazz legacy, inspired by great masters, but playing now, in this moment, with a strong, rich and original sound of their own.
 
Состав
Mattias Ståhl: vibraphone;
Joe Williamson: double bass;
Christopher Cantillo: drums.
По всем вопросам пишите личное сообщение пользователю M0p94ok.
13:37
205
Нет комментариев. Ваш будет первым!