Вы используете незарегистрированную версию компонента "Вкладки"!

Поиск

(Free Jazz, Modern Composition) Yusef Lateef & Adam Rudolph - Live In Seattle - 1999, FLAC (tracks+.cue), lossless

(Free Jazz, Modern Composition) Yusef Lateef & Adam Rudolph - Live In Seattle - 1999, FLAC (tracks+.cue), lossless
Треклист:
Yusef Lateef & Adam Rudolph - Live In Seattle
Жанр: Free Jazz, Modern Composition
Год издания: 1999
Издатель (лейбл): YAL Records
Номер по каталогу: YAL 229
Аудиокодек: FLAC (*.flac)
Тип рипа: tracks+.cue
Битрейт аудио: lossless
Продолжительность: 68:40
Rip by LolaMontes
Наличие сканов в содержимом раздачи: нет
Треклист:
01. Mount Shasta (9:37)
02. Puget Sound (9:24)
03. Hold Your Light (7:05)
04. Ear Shot (5:21)
05. Live In Seattle (4:54)
06. I See The Rainbow (7:03)
07. North West Passage (7:23)
08. Rainbow In Oregon (4:39)
09. Kampong (5:36)
10. Mountain Path (7:38)
Yusef Lateef - flutes, tenor saxophone, shenai, bamboo flutes, piano, midi electronics
Adam Rudolph - habd drums, djembe, bendir, talking drum, thumb pianos, udu drum, didjiridoo, percussion
 
 
Лог создания рипа
Exact Audio Copy V1.0 beta 4 from 7. December 2014
EAC extraction logfile from 27. May 2015, 19:07
Yusef Lateef & Adam Rudolph / Live In Seattle
Used drive : HL-DT-STDVD+-RW GH82N Adapter: 1 ID: 0
Read mode : Secure
Utilize accurate stream : Yes
Defeat audio cache : Yes
Make use of C2 pointers : No
Read offset correction : 667
Overread into Lead-In and Lead-Out : No
Fill up missing offset samples with silence : Yes
Delete leading and trailing silent blocks : No
Null samples used in CRC calculations : Yes
Used interface : Native Win32 interface for Win NT & 2000
Gap handling : Appended to previous track
Used output format : User Defined Encoder
Selected bitrate : 1024 kBit/s
Quality : High
Add ID3 tag : No
Command line compressor : C:\Program Files (x86)\Exact Audio Copy\FLAC\FLAC.EXE
Additional command line options : -6 -V -T "ARTIST=%artist%" -T "TITLE=%title%" -T "ALBUM=%albumtitle%" -T "DATE=%year%" -T "TRACKNUMBER=%tracknr%" -T "GENRE=%genre%" -T "COMMENT=%comment%" -T "BAND=%albuminterpret%" -T "ALBUMARTIST=%albuminterpret%" -T "COMPOSER=%composer%" %haslyrics%--tag-from-file=LYRICS="%lyricsfile%"%haslyrics% -T "DISCNUMBER=%cdnumber%" -T "TOTALDISCS=%totalcds%" -T "TOTALTRACKS=%numtracks%" %hascover%--picture="%coverfile%"%hascover% %source% -o %dest%
TOC of the extracted CD
Track | Start | Length | Start sector | End sector
---------------------------------------------------------
1 | 0:00.00 | 9:37.30 | 0 | 43304
2 | 9:37.30 | 9:23.72 | 43305 | 85601
3 | 19:01.27 | 7:05.00 | 85602 | 117476
4 | 26:06.27 | 5:21.15 | 117477 | 141566
5 | 31:27.42 | 4:53.55 | 141567 | 163596
6 | 36:21.22 | 7:03.30 | 163597 | 195351
7 | 43:24.52 | 7:22.40 | 195352 | 228541
8 | 50:47.17 | 4:38.53 | 228542 | 249444
9 | 55:25.70 | 5:35.65 | 249445 | 274634
10 | 61:01.60 | 7:38.34 | 274635 | 309018
Track 1
Filename C:\Rips\Yusef Lateef & Adam Rudolph - Live In Seattle\01 - Mount Shasta.wav
Pre-gap length 0:00:02.00
Peak level 57.0 %
Extraction speed 2.2 X
Track quality 100.0 %
Copy CRC 1DAB493F
Track not present in AccurateRip database
Copy OK
Track 2
Filename C:\Rips\Yusef Lateef & Adam Rudolph - Live In Seattle\02 - Puget Sound.wav
Pre-gap length 0:00:02.54
Peak level 92.0 %
Extraction speed 2.6 X
Track quality 100.0 %
Copy CRC 2F16A73B
Track not present in AccurateRip database
Copy OK
Track 3
Filename C:\Rips\Yusef Lateef & Adam Rudolph - Live In Seattle\03 - Hold Your Light.wav
Pre-gap length 0:00:02.54
Peak level 87.9 %
Extraction speed 3.0 X
Track quality 100.0 %
Copy CRC E55BAC6B
Track not present in AccurateRip database
Copy OK
Track 4
Filename C:\Rips\Yusef Lateef & Adam Rudolph - Live In Seattle\04 - Ear Shot.wav
Pre-gap length 0:00:02.54
Peak level 89.9 %
Extraction speed 3.1 X
Track quality 100.0 %
Copy CRC A249C00C
Track not present in AccurateRip database
Copy OK
Track 5
Filename C:\Rips\Yusef Lateef & Adam Rudolph - Live In Seattle\05 - Live In Seattle.wav
Pre-gap length 0:00:01.55
Peak level 54.5 %
Extraction speed 3.2 X
Track quality 100.0 %
Copy CRC 99DA2756
Track not present in AccurateRip database
Copy OK
Track 6
Filename C:\Rips\Yusef Lateef & Adam Rudolph - Live In Seattle\06 - I See The Rainbow.wav
Pre-gap length 0:00:01.53
Peak level 91.7 %
Extraction speed 3.5 X
Track quality 100.0 %
Copy CRC 70FAF2D9
Track not present in AccurateRip database
Copy OK
Track 7
Filename C:\Rips\Yusef Lateef & Adam Rudolph - Live In Seattle\07 - North West Passage.wav
Pre-gap length 0:00:02.53
Peak level 90.9 %
Extraction speed 3.5 X
Track quality 99.9 %
Copy CRC 6B5DFB23
Track not present in AccurateRip database
Copy OK
Track 8
Filename C:\Rips\Yusef Lateef & Adam Rudolph - Live In Seattle\08 - Rainbow In Oregon.wav
Pre-gap length 0:00:02.55
Peak level 88.0 %
Extraction speed 3.8 X
Track quality 100.0 %
Copy CRC 5D9AE103
Track not present in AccurateRip database
Copy OK
Track 9
Filename C:\Rips\Yusef Lateef & Adam Rudolph - Live In Seattle\09 - Kampong.wav
Pre-gap length 0:00:02.55
Peak level 91.3 %
Extraction speed 3.9 X
Track quality 100.0 %
Copy CRC 2E73EDCE
Track not present in AccurateRip database
Copy OK
Track 10
Filename C:\Rips\Yusef Lateef & Adam Rudolph - Live In Seattle\10 - Mountain Path.wav
Pre-gap length 0:00:02.55
Peak level 87.7 %
Extraction speed 4.2 X
Track quality 100.0 %
Copy CRC C88E9DDF
Track not present in AccurateRip database
Copy OK
None of the tracks are present in the AccurateRip database
No errors occurred
End of status report
---- CUETools DB Plugin V2.1.4
[CTDB TOCID: kRhCbtkMHdAL_KUKUs.hs0DYvZQ-] found
Submit result: kRhCbtkMHdAL_KUKUs.hs0DYvZQ- has been confirmed
Track | CTDB Status
1 | (2/2) Accurately ripped
2 | (2/2) Accurately ripped
3 | (2/2) Accurately ripped
4 | (2/2) Accurately ripped
5 | (2/2) Accurately ripped
6 | (2/2) Accurately ripped
7 | (2/2) Accurately ripped
8 | (2/2) Accurately ripped
9 | (2/2) Accurately ripped
10 | (2/2) Accurately ripped
==== Log checksum 61FA836947235D327041AA6B0BF4558AA7E917956F11CCC495B764FB56ED7003 ====
 
Содержание индексной карты (.CUE)
REM GENRE Jazz
REM DATE 1999
REM DISCID 9B10180A
REM COMMENT "ExactAudioCopy v1.0b4"
PERFORMER "Yusef Lateef & Adam Rudolph"
TITLE "Live In Seattle"
FILE "01. Mount Shasta.flac" WAVE
TRACK 01 AUDIO
TITLE "Mount Shasta"
PERFORMER "Yusef Lateef & Adam Rudolph"
ISRC USYAL9898001
INDEX 01 00:00:00
TRACK 02 AUDIO
TITLE "Puget Sound"
PERFORMER "Yusef Lateef & Adam Rudolph"
ISRC USYAL9898002
INDEX 00 09:34:51
FILE "02. Puget Sound.flac" WAVE
INDEX 01 00:00:00
TRACK 03 AUDIO
TITLE "Hold Your Light"
PERFORMER "Yusef Lateef & Adam Rudolph"
ISRC USYAL9898003
INDEX 00 09:21:18
FILE "03. Hold Your Light.flac" WAVE
INDEX 01 00:00:00
TRACK 04 AUDIO
TITLE "Ear Shot"
PERFORMER "Yusef Lateef & Adam Rudolph"
ISRC USYAL9898004
INDEX 00 07:02:21
FILE "04. Ear Shot.flac" WAVE
INDEX 01 00:00:00
TRACK 05 AUDIO
TITLE "Live In Seattle"
PERFORMER "Yusef Lateef & Adam Rudolph"
ISRC USYAL9898005
INDEX 00 05:19:35
FILE "05. Live In Seattle.flac" WAVE
INDEX 01 00:00:00
TRACK 06 AUDIO
TITLE "I See The Rainbow"
PERFORMER "Yusef Lateef & Adam Rudolph"
ISRC USYAL9898006
INDEX 00 04:52:02
FILE "06. I See The Rainbow.flac" WAVE
INDEX 01 00:00:00
TRACK 07 AUDIO
TITLE "North West Passage"
PERFORMER "Yusef Lateef & Adam Rudolph"
ISRC USYAL9898007
INDEX 00 07:00:52
FILE "07. North West Passage.flac" WAVE
INDEX 01 00:00:00
TRACK 08 AUDIO
TITLE "Rainbow In Oregon"
PERFORMER "Yusef Lateef & Adam Rudolph"
ISRC USYAL9898008
INDEX 00 07:19:60
FILE "08. Rainbow In Oregon.flac" WAVE
INDEX 01 00:00:00
TRACK 09 AUDIO
TITLE "Kampong"
PERFORMER "Yusef Lateef & Adam Rudolph"
ISRC USYAL9898009
INDEX 00 04:35:73
FILE "09. Kampong.flac" WAVE
INDEX 01 00:00:00
TRACK 10 AUDIO
TITLE "Mountain Path"
PERFORMER "Yusef Lateef & Adam Rudolph"
ISRC USYAL9898010
INDEX 00 05:33:10
FILE "10. Mountain Path.flac" WAVE
INDEX 01 00:00:00
По всем вопросам пишите личное сообщение пользователю M0p94ok.
13:38
312
Нет комментариев. Ваш будет первым!