Вы используете незарегистрированную версию компонента "Вкладки"!

Поиск

(Free Jazz, Contemporary Jazz) [CD] Tim Berne's Snakeoil - You've Been Watching Me - 2015 (ECM 2443), FLAC (tracks+.cue), lossless

(Free Jazz, Contemporary Jazz) [CD] Tim Berne's Snakeoil - You've Been Watching Me - 2015 (ECM 2443), FLAC (tracks+.cue), lossless
Треклист:
Tim Berne's Snakeoil - You've Been Watching Me
Жанр: Free Jazz, Contemporary Jazz
Носитель: CD
Страна-производитель диска (релиза): Германия
Год издания: 2015
Издатель (лейбл): ECM Records
Номер по каталогу: ECM 2443 (472 2298)
Аудиокодек: FLAC (*.flac)
Тип рипа: tracks+.cue
Битрейт аудио: lossless
Продолжительность: 67:37
Источник (релизер): requiem73 (what)
Наличие сканов в содержимом раздачи: нет
Треклист:
01. Lost in Redding (Berne) - 6:59
02. Small World in a Small Town (Berne) - 18:26
03. Embraceable Me (Berne) - 14:13
04. Angles (Berne) - 2:26
05. You've Been Watching Me (Berne) - 1:47
06. Semi-Self Detached (Berne) - 10:24
07. False Impressions (Berne) - 13:22
Состав:
Tim Berne - alto saxophone
Oscar Noriega - clarinet, bass clarinet
Ryan Ferreira - electric guitar, acoustic guitar
Matt Mitchell - piano and electronics
Ches Smith - drums, vibes, percussion, timpani
Recorded at "The Clubhouse", Rhinebeck, NY in December 2014.
 
Лог создания рипа
Exact Audio Copy V1.0 beta 3 from 29. August 2011
EAC extraction logfile from 27. May 2015, 10:57
Tim Berne's Snakeoil / You've Been Watching Me
Used drive : HL-DT-STDVDRAM GH24NS95 Adapter: 0 ID: 2
Read mode : Secure
Utilize accurate stream : Yes
Defeat audio cache : Yes
Make use of C2 pointers : No
Read offset correction : 6
Overread into Lead-In and Lead-Out : No
Fill up missing offset samples with silence : Yes
Delete leading and trailing silent blocks : No
Null samples used in CRC calculations : Yes
Used interface : Native Win32 interface for Win NT & 2000
Gap handling : Appended to previous track
Used output format : User Defined Encoder
Selected bitrate : 1024 kBit/s
Quality : High
Add ID3 tag : No
Command line compressor : C:\Program Files (x86)\Exact Audio Copy\Flac\flac.exe
Additional command line options : -8 -V -T "artist=%artist%" -T "title=%title%" -T "album=%albumtitle%" -T "date=%year%" -T "tracknumber=%tracknr%" -T "genre=%genre%" %source%
TOC of the extracted CD
Track | Start | Length | Start sector | End sector
---------------------------------------------------------
1 | 0:00.00 | 6:58.73 | 0 | 31422
2 | 6:58.73 | 18:26.14 | 31423 | 114386
3 | 25:25.12 | 14:12.70 | 114387 | 178356
4 | 39:38.07 | 2:26.27 | 178357 | 189333
5 | 42:04.34 | 1:46.63 | 189334 | 197346
6 | 43:51.22 | 10:23.50 | 197347 | 244121
7 | 54:14.72 | 13:22.19 | 244122 | 304290
Track 1
Filename D:\Music\Jazz\Free Jazz\Tim Berne\Tim Berne's Snakeoil ‎– You've Been Watching Me (2015)\01 Lost In Redding.wav
Pre-gap length 0:00:02.00
Peak level 90.1 %
Extraction speed 1.2 X
Track quality 99.9 %
Test CRC 73759CF1
Copy CRC 73759CF1
Track not present in AccurateRip database
Copy OK
Track 2
Filename D:\Music\Jazz\Free Jazz\Tim Berne\Tim Berne's Snakeoil ‎– You've Been Watching Me (2015)\02 Small World In A Small Town.wav
Peak level 91.6 %
Extraction speed 1.6 X
Track quality 99.9 %
Test CRC F9DC64B4
Copy CRC F9DC64B4
Track not present in AccurateRip database
Copy OK
Track 3
Filename D:\Music\Jazz\Free Jazz\Tim Berne\Tim Berne's Snakeoil ‎– You've Been Watching Me (2015)\03 Embraceable Me.wav
Peak level 97.0 %
Extraction speed 2.0 X
Track quality 100.0 %
Test CRC 13630740
Copy CRC 13630740
Track not present in AccurateRip database
Copy OK
Track 4
Filename D:\Music\Jazz\Free Jazz\Tim Berne\Tim Berne's Snakeoil ‎– You've Been Watching Me (2015)\04 Angles.wav
Peak level 92.2 %
Extraction speed 1.8 X
Track quality 100.0 %
Test CRC 179A701B
Copy CRC 179A701B
Track not present in AccurateRip database
Copy OK
Track 5
Filename D:\Music\Jazz\Free Jazz\Tim Berne\Tim Berne's Snakeoil ‎– You've Been Watching Me (2015)\05 You've Been Watching Me.wav
Peak level 52.4 %
Extraction speed 1.7 X
Track quality 100.0 %
Test CRC 37299AD9
Copy CRC 37299AD9
Track not present in AccurateRip database
Copy OK
Track 6
Filename D:\Music\Jazz\Free Jazz\Tim Berne\Tim Berne's Snakeoil ‎– You've Been Watching Me (2015)\06 Semi Self Detached.wav
Peak level 91.2 %
Extraction speed 2.3 X
Track quality 100.0 %
Test CRC 3D2920E1
Copy CRC 3D2920E1
Track not present in AccurateRip database
Copy OK
Track 7
Filename D:\Music\Jazz\Free Jazz\Tim Berne\Tim Berne's Snakeoil ‎– You've Been Watching Me (2015)\07 False Impressions.wav
Peak level 85.1 %
Extraction speed 2.6 X
Track quality 100.0 %
Test CRC B7EBF80E
Copy CRC B7EBF80E
Track not present in AccurateRip database
Copy OK
None of the tracks are present in the AccurateRip database
No errors occurred
End of status report
---- CUETools DB Plugin V2.1.3
[CTDB TOCID: Yyx9boQnX_K6v7qUP6CSk0A2QI8-] found, Submit result: already submitted
[b869f255] (4/4) Accurately ripped
==== Log checksum 41B17649AD781CCB3FBCC257C7715BADA6B2B24AEA0B03AAA51D7E28D2F4B82B ====
 
Содержание индексной карты (.CUE)
REM GENRE Jazz
REM DATE 2015
REM DISCID 510FD907
REM COMMENT "ExactAudioCopy v1.0b3"
CATALOG 0602547222985
PERFORMER "Tim Berne's Snakeoil"
TITLE "You've Been Watching Me"
FILE "01 - Lost in Redding.wav" WAVE
TRACK 01 AUDIO
TITLE "Lost in Redding"
PERFORMER "Tim Berne's Snakeoil"
ISRC DEB331444301
INDEX 01 00:00:00
FILE "02 - Small World in a Small Town.wav" WAVE
TRACK 02 AUDIO
TITLE "Small World in a Small Town"
PERFORMER "Tim Berne's Snakeoil"
ISRC DEB331444302
INDEX 01 00:00:00
FILE "03 - Embraceable Me.wav" WAVE
TRACK 03 AUDIO
TITLE "Embraceable Me"
PERFORMER "Tim Berne's Snakeoil"
ISRC DEB331444303
INDEX 01 00:00:00
FILE "04 - Angles.wav" WAVE
TRACK 04 AUDIO
TITLE "Angles"
PERFORMER "Tim Berne's Snakeoil"
ISRC DEB331444304
INDEX 01 00:00:00
FILE "05 - You've Been Watching Me.wav" WAVE
TRACK 05 AUDIO
TITLE "You've Been Watching Me"
PERFORMER "Tim Berne's Snakeoil"
ISRC DEB331444305
INDEX 01 00:00:00
FILE "06 - Semi-Self Detached.wav" WAVE
TRACK 06 AUDIO
TITLE "Semi-Self Detached"
PERFORMER "Tim Berne's Snakeoil"
ISRC DEB331444305
INDEX 01 00:00:00
FILE "07 - False Impressions.wav" WAVE
TRACK 07 AUDIO
TITLE "False Impressions"
PERFORMER "Tim Berne's Snakeoil"
ISRC DEB331444307
INDEX 01 00:00:00
 
Отчет CUETools
[CUETools log; Date: 27.05.2015 14:06:32; Version: 2.1.5]
[CTDB TOCID: Yyx9boQnX_K6v7qUP6CSk0A2QI8-] found.
Track | CTDB Status
1 | (4/4) Accurately ripped
2 | (4/4) Accurately ripped
3 | (4/4) Accurately ripped
4 | (4/4) Accurately ripped
5 | (4/4) Accurately ripped
6 | (4/4) Accurately ripped
7 | (4/4) Accurately ripped
[AccurateRip ID: 001336fd-0070d05a-510fd907] disk not present in database.
Track Peak [ CRC32 ] [W/O NULL] [ LOG ]
-- 97,0 [8DB23DC3] [0EAF2F48]
01 90,1 [73759CF1] [1A799994] CRC32
02 91,6 [F9DC64B4] [DA03ACE4] CRC32
03 97,0 [13630740] [C5328ED7] CRC32
04 92,2 [179A701B] [8BD3B0B8] CRC32
05 52,4 [37299AD9] [1C6B9AFB] CRC32
06 91,2 [3D2920E1] [AA6BEB29] CRC32
07 85,1 [B7EBF80E] [726ADAD2] CRC32
 
Review by Thom Jurek
When Tim Berne recorded with his Snakeoil band for ECM in 2012, it marked the debut of his new working band and the first time he'd cut a studio album in a decade. With Oscar Noriega on clarinets, pianist Matt Mitchell, and drummer Ches Smith, Berne was able to extend the horizons in his compositions. While conversational intrigue, fiery improvisation, knotty counterpoint, and wildly varying dynamics had long been part of his aesthetic, they found a fluid yet immediate language on 2013's Shadow Man. That quartet has become a quintet with the addition of guitarist Ryan Ferreira on You've Been Watching Me (produced by David Torn). If you're thinking of this as a direct link to his Bloodcount group that added guitarist Marc Ducret, you're only partially right. Ferreira adds not just firepower, but a unique ability to explore texture and space. Four of the album's seven pieces are over ten minutes. Opener "Lost in Redding" commences with an avant-prog-like intro as harmonic cadences are woven together almost knot-like. Ferreira and his distortion boxes cut loose before restrained clarinet and saxophone skeins give way to a gorgeous Mitchell solo. There isn't anything "small" about "Small World in a Small Town." Over 18 minutes long, its first five-and-a-half are a duet between Berne and Mitchell that begins elliptically but gathers force and labyrinthine dimensions before the rest of the band enters. Ferreira's guitar is another lyric instrument in an expansive, contrapuntal study that opens on to a spacious yet at times sparse sonic vista. Noriega's clarinet solo is lovely before the band re-enters in a bluesy, steam-gathering waltz. "Embraceable Me" has a chamber ensemble's intimacy, albeit one where Smith's use of vibes is as poignant as it is illustrative, and it holds down its angular lyric line. It maintains that feel even when the dynamic increases with Noriega (on sax) and Ferreira adding cadenza-like extensions before dialoguing in jagged yet precise counterpoint and then shifting toward a thematic five-note pulse (Mitchell) as Ferreira, Noriega, and Berne add tonal color and breadth before introducing another complex harmonic line with the guitarist taking it out. Most of "Semi-Self Detached"'s ten-plus minutes is made up of long languorous spaces, ambient textures, and melodic suggestions that give way to a blistering free alto saxophone solo, cracking clattering drums, majestic piano, and precise, gear-like lyricism at its nadir. "False Impressions" features frenetic, unmistakably swinging conversations between Berne and Noriega in the tune's head (with hints of Julius Hemphill's influence). Mitchell places a percussive, tangled melodic frame as Smith adds dimension on vibes and Ferreira's distorted guitar lines soar atop. Even the long, shapeshifting, textural digression in the center is focused, smart, and full of surprises. You've Been Watching Me is the most structured record from Snakeoil as well as the most varied. The band's language has expanded with the addition of Ferreira, yet it's more intuitive -- where the space and complexity are different shades in the face of beauty.
По всем вопросам пишите личное сообщение пользователю M0p94ok.
13:37
185
Нет комментариев. Ваш будет первым!