Вы используете незарегистрированную версию компонента "Вкладки"!

Поиск

(Modern Creative, Avant-garde, Fusion) Steven Mackey - Heavy Light - 2004, FLAC (image+.cue), lossless

(Modern Creative, Avant-garde, Fusion) Steven Mackey - Heavy Light - 2004, FLAC (image+.cue), lossless
Треклист:
Steven Mackey / Heavy Light
Жанр: Modern Creative, Avant-garde, Fusion
Страна-производитель диска: USA
Год издания диска: 2004
Издатель (лейбл): New World Records
Номер по каталогу: 80615-2
Аудиокодек: FLAC (*.flac)
Тип рипа: image+.cue
Битрейт аудио: lossless
Продолжительность: 72:26
Источник (релизер): Piterets
Наличие сканов в содержимом раздачи: да
Треклист:
1- Heavy Light, for ensemble: Ritual
2- Heavy Light, for ensemble: First Crossing
3- Heavy Light, for ensemble: Psychedelic Sketch
4- Heavy Light, for ensemble: Voices
5- Heavy Light, for ensemble: Second Crossing
6- Heavy Light, for ensemble: Heavy Light
7- Micro-Concerto for ensemble: 1. Chords and Fangled Drumset
8- Micro-Concerto for ensemble: 2. Interlude No. 1: Vibes solo
9- Micro-Concerto for ensemble: 3. Clik, Clak, Clank
10- Micro-Concerto for ensemble: 4. Interlude No. 2: Marimba and Cello
11- Micro-Concerto for ensemble: 5. Time in Seven
12- Indigenous Instruments, for ensemble: 1. Swinging, crisp, rhythmic
13- Indigenous Instruments, for ensemble: 2. Floating, as if improvised
14- Indigenous Instruments, for ensemble: 3. Mesmerizing, strange, dark, funky
 
Лог создания рипа
Exact Audio Copy V0.99 prebeta 4 from 23. January 2008
EAC extraction logfile from 17. January 2011, 23:02
Steven Mackey / Heavy Light
Used drive : QSI CDRW/DVD SBW242U Adapter: 1 ID: 0
Read mode : Secure
Utilize accurate stream : Yes
Defeat audio cache : Yes
Make use of C2 pointers : No
Read offset correction : 6
Overread into Lead-In and Lead-Out : No
Fill up missing offset samples with silence : Yes
Delete leading and trailing silent blocks : No
Null samples used in CRC calculations : Yes
Used interface : Installed external ASPI interface
Used output format : User Defined Encoder
Selected bitrate : 768 kBit/s
Quality : High
Add ID3 tag : No
Command line compressor : C:\Program Files\Exact Audio Copy\Flac\flac.exe
Additional command line options : -8 -V %s -o %d
TOC of the extracted CD
Track | Start | Length | Start sector | End sector
---------------------------------------------------------
1 | 0:00.00 | 11:23.65 | 0 | 51289
2 | 11:23.65 | 4:35.46 | 51290 | 71960
3 | 15:59.36 | 4:22.35 | 71961 | 91645
4 | 20:21.71 | 2:18.62 | 91646 | 102057
5 | 22:40.58 | 3:03.47 | 102058 | 115829
6 | 25:44.30 | 9:27.05 | 115830 | 158359
7 | 35:11.35 | 4:04.00 | 158360 | 176659
8 | 39:15.35 | 1:17.34 | 176660 | 182468
9 | 40:32.69 | 5:06.36 | 182469 | 205454
10 | 45:39.30 | 1:27.10 | 205455 | 211989
11 | 47:06.40 | 6:47.14 | 211990 | 242528
12 | 53:53.54 | 6:28.45 | 242529 | 271673
13 | 60:22.24 | 6:02.27 | 271674 | 298850
14 | 66:24.51 | 6:01.48 | 298851 | 325973
Range status and errors
Selected range
Filename D:\Mackey\Steven Mackey - Heavy Light.wav
Peak level 99.1 %
Range quality 100.0 %
Test CRC FC1FBC5C
Copy CRC FC1FBC5C
Copy OK
No errors occurred
AccurateRip summary
Track 1 not present in database
Track 2 not present in database
Track 3 not present in database
Track 4 not present in database
Track 5 not present in database
Track 6 not present in database
Track 7 not present in database
Track 8 not present in database
Track 9 not present in database
Track 10 not present in database
Track 11 not present in database
Track 12 not present in database
Track 13 not present in database
Track 14 not present in database
None of the tracks are present in the AccurateRip database
End of status report
 
Содержание индексной карты (.CUE)
REM DATE 2004
REM DISCID C610FA0E
REM COMMENT "ExactAudioCopy v0.99pb4"
PERFORMER "Steven Mackey"
TITLE "Heavy Light"
FILE "Steven Mackey - Heavy Light.flac" WAVE
TRACK 01 AUDIO
TITLE "Heavy Light - Ritual"
PERFORMER "Steven Mackey"
INDEX 01 00:00:00
TRACK 02 AUDIO
TITLE "Heavy Light - First Crossing"
PERFORMER "Steven Mackey"
INDEX 01 11:23:65
TRACK 03 AUDIO
TITLE "Heavy Light - Psychedelic Sketch"
PERFORMER "Steven Mackey"
INDEX 01 15:59:36
TRACK 04 AUDIO
TITLE "Heavy Light - Voices"
PERFORMER "Steven Mackey"
INDEX 01 20:21:71
TRACK 05 AUDIO
TITLE "Heavy Light - Second Crossing"
PERFORMER "Steven Mackey"
INDEX 01 22:40:58
TRACK 06 AUDIO
TITLE "Heavy Light - Heavy Light"
PERFORMER "Steven Mackey"
INDEX 01 25:44:30
TRACK 07 AUDIO
TITLE "Micro-Concerto - I. Chords and Fangled Drumset"
PERFORMER "Steven Mackey"
INDEX 00 35:08:37
INDEX 01 35:11:35
TRACK 08 AUDIO
TITLE "Micro-Concerto - II. Interlude #1, Vibes solo"
PERFORMER "Steven Mackey"
INDEX 01 39:15:35
TRACK 09 AUDIO
TITLE "Micro-Concerto - III. Clik, Clak, Clank"
PERFORMER "Steven Mackey"
INDEX 01 40:32:69
TRACK 10 AUDIO
TITLE "Micro-Concerto - IV. Interlude #2, Marimba and Cello"
PERFORMER "Steven Mackey"
INDEX 01 45:39:30
TRACK 11 AUDIO
TITLE "Micro-Concerto - V. Tune in Seven"
PERFORMER "Steven Mackey"
INDEX 01 47:06:40
TRACK 12 AUDIO
TITLE "Indigenous Instruments - I. Swinging, crisp, rhythmic"
PERFORMER "Steven Mackey"
INDEX 00 53:51:26
INDEX 01 53:53:54
TRACK 13 AUDIO
TITLE "Indigenous Instruments - II. Floating, as if improvised"
PERFORMER "Steven Mackey"
INDEX 01 60:22:24
TRACK 14 AUDIO
TITLE "Indigenous Instruments - III. Mesmerizing, strange, dark, funky"
PERFORMER "Steven Mackey"
INDEX 01 66:24:51
 
Об альбоме (сборнике)
Steven Mackey (b. 1956) has a rock background like Tüur, and when he plays electric guitar figurations in Heavy Light from this deftly played and atmospherically recorded New World CD, that background comes to the fore, or at least to the middle-ground. He says he is using rock as a form of vernacular, or folk-reference, in a serious context. So sometimes, think Zappa. Mostly, though, the three works here sound like serious, witty, chromatic chamber music, with the whole of the last century on board.
www.arkivmusic.com
Mackey’s music is part of the unclassifiable miasma of music after minimalism that isn’t wholly tonal but isn’t just noise, is somewhat repetitive but isn’t based solely around repetition, and is “serious” and “classical” but doesn’t ignore the influence of other styles of music. If this sounds vague, it’s because there’s so much variety out there, and we’re too close to it to really be able to tell any trends. Mackey is always quick to point out that he comes from a rock background, being a guitarist who grew up in the '60s. So if he is an innovator, it’s because he brought the electric guitar into the concert hall as a solo instrument.
In the one composition here with guitar, the title track, Mackey’s tone and thrashy technique nearly become a problem, but through the miracle of mixing, the guitar is never louder that the cello or flute, making its huge sound a bit more intimate and bearable. The piece itself is a hodgepodge of styles, with a few ensemble passages that sound straight out of Iran, a few guitar solos straight from Joe Satriani, a few fairly straight-forward “new music” moments, and a strange feeling of rock’n’roll hiding just under the surface.
The other two compositions feature the MOSIAC ensemble, a sextet of flute, clarinet, violin, cello, piano and percussion. This type of group (minus percussion) is known as a Pierrot ensemble, named after a Schoenberg piece, and is perhaps the most popular chamber ensemble of the moment. Micro-Concerto takes full advantage of the versatility of the modern percussionist, embodied here by Daniel Druckman. He spends most of his time clattering between innumerable different percussion instruments, often playing multiple instruments at once. It’s a feat of virtuosity that would be a kick to see live. And Indigenous Instruments is the folk music of an imagined culture that likes to detune its instruments in strange ways. Mackey’s invented world is not an exotic one, predicated more on Aaron Copland than an African tribesman, though there are moments where Mackey explores the nuances of his detuned instruments that sound more exotic. But this piece is ultimately the most satisfying because of the way it reinvents this standard ensemble with extended techniques and unusual sounds, and because ultimately microtones are just more fun than equal temperment.
By Dan Ruccia, www.dustedmagazine.com
 
Состав
MOSAIC: Zizi Mueller, flute; Michael Finckel, cello; Emma Tahmizian, piano; Daniel Druckman, percussion; Michael Lowenstern, clarinet; Shem Guibbory, violin; Steven Mackey, electric guitar (soloist in Heavy Light)
По всем вопросам пишите личное сообщение пользователю M0p94ok.
18:02
159
Нет комментариев. Ваш будет первым!