Вы используете незарегистрированную версию компонента "Вкладки"!

Поиск

(Free Jazz, Hard Bop, Post-Bop) John Coltrane - In Europe [Box 3 cd] (1961-1965) - 2001, FLAC (image+.cue), lossless

(Free Jazz, Hard Bop, Post-Bop) John Coltrane - In Europe [Box 3 cd] (1961-1965) - 2001, FLAC (image+.cue), lossless
Треклист:
John Coltrane / In Europe [Box 3 cd] (1961-1965)
Жанр: Free Jazz, Hard Bop, Post-Bop
Страна-производитель диска: UK
Год издания диска: 2001
Издатель (лейбл): Charly Records
Номер по каталогу: SNAJ701CD
Аудиокодек: FLAC (*.flac)
Тип рипа: image+.cue
Битрейт аудио: lossless
Продолжительность: 65:32+78:42+74:35
Источник (релизер): pcharlie46
Наличие сканов в содержимом раздачи: да
Треклист:
Disc 1: Stockholm Sweetnin’
01.My Favourite Thinghs
02.Naima
03.Blue Train
04.Traneing In
05.Mr P.C.
06.Spiritual
Disc 2: Greatness in Graz
01.Autumn Leaves
02.Bye, Bye, Blackbird
03.I Want To Talk Abaout You
04.Everytime We Say Goodbye
05.My Favourite Things
Total time 01:18:39
Disc 3: The French Connection
01.Afro Blue
02.Impressions/A Love Supreme
03.Part 1 – Acknowledgement
04.Part 2 – Resolution
05.Part 3 – Pursuance
06.Part 4 – Psalm
Total time 01:14:34
Recorded between 1961 & 1965.
 
Лог создания рипа

 
cd1
Exact Audio Copy V1.0 beta 1 from 15. November 2010
EAC extraction logfile from 18. June 2011, 10:29
John Coltrane / In Europe disc 1
Used drive : MATSHITADVD-RAM UJ870BJ Adapter: 0 ID: 1
Read mode : Secure
Utilize accurate stream : Yes
Defeat audio cache : Yes
Make use of C2 pointers : No
Read offset correction : 102
Overread into Lead-In and Lead-Out : No
Fill up missing offset samples with silence : Yes
Delete leading and trailing silent blocks : No
Null samples used in CRC calculations : No
Used interface : Native Win32 interface for Win NT & 2000
Used output format : User Defined Encoder
Selected bitrate : 1024 kBit/s
Quality : High
Add ID3 tag : No
Command line compressor : C:\Program Files\Exact Audio Copy\FLAC\FLAC.EXE
Additional command line options : -6 -V -T "ARTIST=%a" -T "TITLE=%t" -T "ALBUM=%g" -T "DATE=%y" -T "TRACKNUMBER=%n" -T "GENRE=%m" -T "COMMENT=%e" %j--picture="%i"%j %s -o %d
TOC of the extracted CD
Track | Start | Length | Start sector | End sector
---------------------------------------------------------
1 | 0:00.00 | 20:30.00 | 0 | 92249
2 | 20:30.00 | 4:08.15 | 92250 | 110864
3 | 24:38.15 | 8:59.20 | 110865 | 151309
4 | 33:37.35 | 11:36.45 | 151310 | 203554
5 | 45:14.05 | 8:18.02 | 203555 | 240906
6 | 53:32.07 | 12:00.08 | 240907 | 294914
Range status and errors
Selected range
Filename E:\Lossless 2\John Coltrane in Europe -(2001) 3 cd (flac)\Stockholm Sweetin'\John Coltrane - In Europe.wav
Peak level 90.8 %
Extraction speed 0.1 X
Range quality 100.0 %
Copy CRC F3FCEA9D
Copy OK
No errors occurred
AccurateRip summary
Track 1 cannot be verified as accurate (confidence 1) [F7CB8362], AccurateRip returned [ACFFE6E4]
Track 2 cannot be verified as accurate (confidence 1) [D19D6F51], AccurateRip returned [E886656D]
Track 3 cannot be verified as accurate (confidence 1) [70800F7E], AccurateRip returned [322050A8]
Track 4 cannot be verified as accurate (confidence 1) [4A60161E], AccurateRip returned [597B7144]
Track 5 cannot be verified as accurate (confidence 1) [04FBBF21], AccurateRip returned [95AF7673]
Track 6 cannot be verified as accurate (confidence 1) [9BBA0B01], AccurateRip returned [4FEF544D]
No tracks could be verified as accurate
You may have a different pressing from the one(s) in the database
End of status report
==== Log checksum BFFC0BF69DD7791A5E28D021F60F9A2877AC6F4DC484E0660DCD1BA417444DAD ====
 
cd2
Exact Audio Copy V1.0 beta 1 from 15. November 2010
EAC extraction logfile from 19. June 2011, 10:17
John Coltrane / In Europe disc 2
Used drive : MATSHITADVD-RAM UJ870BJ Adapter: 0 ID: 1
Read mode : Secure
Utilize accurate stream : Yes
Defeat audio cache : Yes
Make use of C2 pointers : No
Read offset correction : 102
Overread into Lead-In and Lead-Out : No
Fill up missing offset samples with silence : Yes
Delete leading and trailing silent blocks : No
Null samples used in CRC calculations : No
Used interface : Native Win32 interface for Win NT & 2000
Used output format : User Defined Encoder
Selected bitrate : 1024 kBit/s
Quality : High
Add ID3 tag : No
Command line compressor : C:\Program Files\Exact Audio Copy\FLAC\FLAC.EXE
Additional command line options : -6 -V -T "ARTIST=%a" -T "TITLE=%t" -T "ALBUM=%g" -T "DATE=%y" -T "TRACKNUMBER=%n" -T "GENRE=%m" -T "COMMENT=%e" %j--picture="%i"%j %s -o %d
TOC of the extracted CD
Track | Start | Length | Start sector | End sector
---------------------------------------------------------
1 | 0:00.00 | 10:38.70 | 0 | 47919
2 | 10:38.70 | 23:30.10 | 47920 | 153679
3 | 34:09.05 | 14:02.37 | 153680 | 216866
4 | 48:11.42 | 6:58.13 | 216867 | 248229
5 | 55:09.55 | 23:32.30 | 248230 | 354159
Range status and errors
Selected range
Filename E:\Lossless 2\John Coltrane in Europe -(2001) 3 cd (flac)\Greatness In Graz\John Coltrane - In Europe disc 2.wav
Peak level 88.7 %
Extraction speed 0.2 X
Range quality 100.0 %
Copy CRC F6FD9B07
Copy OK
No errors occurred
AccurateRip summary
Track 1 cannot be verified as accurate (confidence 1) [41B0B22F], AccurateRip returned [0444645F]
Track 2 cannot be verified as accurate (confidence 1) [864DE9A2], AccurateRip returned [AFF42E7C]
Track 3 cannot be verified as accurate (confidence 1) [179ECCCF], AccurateRip returned [C8826FB3]
Track 4 cannot be verified as accurate (confidence 1) [862061A1], AccurateRip returned [8736B817]
Track 5 cannot be verified as accurate (confidence 1) [A5D6DE71], AccurateRip returned [13EE0DA1]
No tracks could be verified as accurate
You may have a different pressing from the one(s) in the database
End of status report
==== Log checksum 706FD2DA2F3848E4DF47823CF4505968B07E79A882DAD4865DA77E216B348DB7 ====
 
cd3
Exact Audio Copy V1.0 beta 1 from 15. November 2010
EAC extraction logfile from 19. June 2011, 11:52
John Coltrane / In Europe disc 3
Used drive : MATSHITADVD-RAM UJ870BJ Adapter: 0 ID: 1
Read mode : Secure
Utilize accurate stream : Yes
Defeat audio cache : Yes
Make use of C2 pointers : No
Read offset correction : 102
Overread into Lead-In and Lead-Out : No
Fill up missing offset samples with silence : Yes
Delete leading and trailing silent blocks : No
Null samples used in CRC calculations : No
Used interface : Native Win32 interface for Win NT & 2000
Used output format : User Defined Encoder
Selected bitrate : 1024 kBit/s
Quality : High
Add ID3 tag : No
Command line compressor : C:\Program Files\Exact Audio Copy\FLAC\FLAC.EXE
Additional command line options : -6 -V -T "ARTIST=%a" -T "TITLE=%t" -T "ALBUM=%g" -T "DATE=%y" -T "TRACKNUMBER=%n" -T "GENRE=%m" -T "COMMENT=%e" %j--picture="%i"%j %s -o %d
TOC of the extracted CD
Track | Start | Length | Start sector | End sector
---------------------------------------------------------
1 | 0:00.00 | 10:38.50 | 0 | 47899
2 | 10:38.50 | 15:59.27 | 47900 | 119851
3 | 26:38.02 | 6:11.63 | 119852 | 147739
4 | 32:49.65 | 14:10.72 | 147740 | 211561
5 | 47:00.62 | 10:51.35 | 211562 | 260421
6 | 57:52.22 | 16:42.25 | 260422 | 335596
Range status and errors
Selected range
Filename E:\Lossless 2\John Coltrane in Europe -(2001) 3 cd (flac)\The French Connection\John Coltrane - In Europe disc 3.wav
Peak level 88.9 %
Extraction speed 0.1 X
Range quality 100.0 %
Copy CRC B3E33CD0
Copy OK
No errors occurred
AccurateRip summary
Track 1 cannot be verified as accurate (confidence 1) [DCF191A1], AccurateRip returned [8E4BCBF5]
Track 2 cannot be verified as accurate (confidence 1) [4E69D0B1], AccurateRip returned [E6CB22F7]
Track 3 cannot be verified as accurate (confidence 1) [58F26D95], AccurateRip returned [F35BFFE4]
Track 4 cannot be verified as accurate (confidence 1) [37548890], AccurateRip returned [AF9C5449]
Track 5 cannot be verified as accurate (confidence 1) [2DE558E6], AccurateRip returned [CEF28756]
Track 6 cannot be verified as accurate (confidence 1) [48ECF80D], AccurateRip returned [48D603CF]
No tracks could be verified as accurate
You may have a different pressing from the one(s) in the database
End of status report
==== Log checksum C73C60E8F72B39E3B4498ADBE4E0361D40FFB8DA9432BC94191C4AF4D1D0E863 ====
 
Содержание индексной карты (.CUE)

 
cd1
REM GENRE Jazz
REM DISCID 3D0F5C06
REM COMMENT "ExactAudioCopy v1.0b1"
PERFORMER "John Coltrane"
TITLE "In Europe disc 1"
FILE "John Coltrane - In Europe.flac" WAVE
TRACK 01 AUDIO
TITLE "My Favorite Things"
PERFORMER "John Coltrane"
INDEX 01 00:00:00
TRACK 02 AUDIO
TITLE "Naima"
PERFORMER "John Coltrane"
INDEX 00 20:27:22
INDEX 01 20:30:00
TRACK 03 AUDIO
TITLE "Blue Train"
PERFORMER "John Coltrane"
INDEX 00 24:35:40
INDEX 01 24:38:15
TRACK 04 AUDIO
TITLE "Traineing In"
PERFORMER "John Coltrane"
INDEX 00 33:34:57
INDEX 01 33:37:35
TRACK 05 AUDIO
TITLE "Mr P.C."
PERFORMER "John Coltrane"
INDEX 00 45:11:30
INDEX 01 45:14:05
TRACK 06 AUDIO
TITLE "Spiritual"
PERFORMER "John Coltrane"
INDEX 00 53:29:32
INDEX 01 53:32:07
 
cd2
REM GENRE Jazz
REM DISCID 32127205
REM COMMENT "ExactAudioCopy v1.0b1"
PERFORMER "John Coltrane"
TITLE "In Europe disc 2"
FILE "John Coltrane - In Europe disc 2.flac" WAVE
TRACK 01 AUDIO
TITLE "Autumn Leaves"
PERFORMER "John Coltrane"
INDEX 01 00:00:00
TRACK 02 AUDIO
TITLE "Bye, Bye, Blackbird"
PERFORMER "John Coltrane"
INDEX 00 10:36:20
INDEX 01 10:38:70
TRACK 03 AUDIO
TITLE "I Want To Talk About It"
PERFORMER "John Coltrane"
INDEX 00 34:06:30
INDEX 01 34:09:05
TRACK 04 AUDIO
TITLE "Ev'rytime We Say Goodbye"
PERFORMER "John Coltrane"
INDEX 00 48:08:67
INDEX 01 48:11:42
TRACK 05 AUDIO
TITLE "My Favorite Things"
PERFORMER "John Coltrane"
INDEX 00 55:07:05
INDEX 01 55:09:55
 
cd3
REM GENRE Jazz
REM DISCID 45117A06
REM COMMENT "ExactAudioCopy v1.0b1"
PERFORMER "John Coltrane"
TITLE "In Europe disc 3"
FILE "John Coltrane - In Europe disc 3.flac" WAVE
TRACK 01 AUDIO
TITLE "Afro Blue"
PERFORMER "John Coltrane"
INDEX 01 00:00:00
TRACK 02 AUDIO
TITLE "Impression"
PERFORMER "John Coltrane"
INDEX 00 10:36:00
INDEX 01 10:38:50
TRACK 03 AUDIO
TITLE "Part 1 - Acknowledgement"
PERFORMER "John Coltrane"
INDEX 00 26:35:27
INDEX 01 26:38:02
TRACK 04 AUDIO
TITLE "Part 2 - Resolution"
PERFORMER "John Coltrane"
INDEX 01 32:49:65
TRACK 05 AUDIO
TITLE "Part 3 - Pusuance"
PERFORMER "John Coltrane"
INDEX 01 47:00:62
TRACK 06 AUDIO
TITLE "Part 4 - Psalm"
PERFORMER "John Coltrane"
INDEX 01 57:52:22
 
Об альбоме (сборнике)
Live compilation for one of the 20th Century's most important & influential musicians. Recorded during several truly memorable European concerts made between 1961 & 1965. The classic performances feature Coltrane in company with McCoy Tyner, Jimmy Garrison & Elvin Jones. On three tracks the legendary Eric Dolphy joins the most famous quartet. Includes 'Naima', 'Impressions' & two contrasting & extended performances of the evergreen 'My Favorite Things', plus an awesome 48-minute performance of Coltrane's undisputed masterpiece, 'A Love Supreme'. Three & a half hours in length. Each disc comes in it's own wallet & come housed together in a compact box. The sets illustrated booklet includes detailed background notes & a re-analysis of these seminal recordings by leading jazz writer & historian Stan Britt.
 
Состав
John Coltrane: soprano, tenor saxophone
McCoy Tyner: piano
Elvin Jones: drums
Eric Dolphy: flute, clarinet, alto saxophone, bass guitar
Reggie Workman: bass instrument
Jimmy Garrison: bass
Any questions -> support@pro-jazz.com. По всем вопросам пишите -> support@pro-jazz.com
18:01
186
Нет комментариев. Ваш будет первым!