Поиск

(Modern Creative, Avant-garde) Daniel Lippel & International Contemporary Ensemble - Abandoned Time [Dai Fujikura, Mario Davidovsky, Kaija Saariaho, Du Yun, Magnus Lindberg]- 2008, FLAC (image+.cue), lossless

(Modern Creative, Avant-garde) Daniel Lippel & International Contemporary Ensemble - Abandoned Time [Dai Fujikura, Mario Davidovsky, Kaija Saariaho, Du Yun, Magnus Lindberg]- 2008, FLAC (image+.cue), lossless
Треклист:
Daniel Lippel & International Contemporary Ensemble / Abandoned Time
Жанр: Modern Creative, Avant-garde
Год издания диска: 2008
Издатель (лейбл): New Focus Recordings
Аудиокодек: FLAC (*.flac)
Тип рипа: image+.cue
Битрейт аудио: lossless
Продолжительность: 59:24
Источник (релизер): Piterets
Наличие сканов в содержимом раздачи: нет
Треклист:
Dai Fujikura (b. 1977)
1. Abandoned Time *(2004/06)
Mario Davidovsky (b. 1934)
2. Festino (1994)
Kaija Saariaho (b. 1952)
3. Adjö (1982/85)
Du Yun (b. 1977)
4. Vicissitudes No.1 *(2002)
Magnus Lindberg (b. 1958)
5. Linea d'ombra (1981)
* premiere recording
 
Лог создания рипа
Exact Audio Copy V0.99 prebeta 4 from 23. January 2008
EAC extraction logfile from 2. September 2009, 1:38
International Contemporary Ensemble / Abandoned Time
Used drive : QSI CDRW/DVD SBW242U Adapter: 1 ID: 0
Read mode : Secure
Utilize accurate stream : Yes
Defeat audio cache : Yes
Make use of C2 pointers : No
Read offset correction : 6
Overread into Lead-In and Lead-Out : No
Fill up missing offset samples with silence : Yes
Delete leading and trailing silent blocks : No
Null samples used in CRC calculations : Yes
Used interface : Installed external ASPI interface
Used output format : User Defined Encoder
Selected bitrate : 768 kBit/s
Quality : High
Add ID3 tag : No
Command line compressor : C:\Program Files\Exact Audio Copy\Flac\flac.exe
Additional command line options : -8 -V %s -o %d
TOC of the extracted CD
Track | Start | Length | Start sector | End sector
---------------------------------------------------------
1 | 0:00.00 | 8:59.30 | 0 | 40454
2 | 8:59.30 | 10:25.34 | 40455 | 87363
3 | 19:24.64 | 10:37.10 | 87364 | 135148
4 | 30:01.74 | 14:22.57 | 135149 | 199855
5 | 44:24.56 | 14:59.15 | 199856 | 267295
Range status and errors
Selected range
Filename C:\Documents and Settings\Desktop\ICE\International Contemporary Ensemble - Abandoned Time.wav
Peak level 98.6 %
Range quality 100.0 %
Test CRC D075965D
Copy CRC D075965D
Copy OK
No errors occurred
AccurateRip summary
Track 1 not present in database
Track 2 not present in database
Track 3 not present in database
Track 4 not present in database
Track 5 not present in database
None of the tracks are present in the AccurateRip database
End of status report
 
Об альбоме (сборнике)
Abandoned Time is a no holds barred collection of music by some of the most exciting composers writing on today's international scene, performed by the electrifying New York/Chicago based ICE (International Contemporary Ensemble) featuring their intrepid guitarist Daniel Lippel.
In recent years the International Contemporary Ensemble has proved itself one of the most adventurous and accomplished groups in new music.
--Steve Smith, New York Times
"The title track on Dan Lippel’s new CD with the International Contemporary Ensemble, Abandoned Time (New Focus), is scored for chamber group—strings, piano, flute, clarinet—so it’s a bit of a shock when his slithering, distorted electric guitar makes its first entrance. Written by young Japanese composer Dai Fujikura, the piece is packed with collar-grabbing stop-start transitions and dissonant strings that deliver choppy unison parts and ominous long tones, but Lippel’s guitar presides over the proceedings whether it’s screaming atop the din or weaving delicately through it. Also a longtime member of the post-rock band Mice Parade, he tackles a strictly modern repertoire on Abandoned Time, backed with sensitivity and verve by members of ICE, a partly local collective that’s emerged as one of the country’s boldest advocates of new music. Lippel plays acoustic guitar on most of the other compositions—by Mario Davidovsky, Kaija Saariaho, Du Yun, and Magnus Lindberg—and they’re just as demanding, filled with jagged lines, blistering rhythms, and explosions of energy."
—Peter Margasak, Chicago Reader, November 17, 2008
"The performances of the International Contemporary Ensemble are staggeringly cool. Dai Fujikura's Abandoned Time is a post-rock soundtrack set to the horror movie of the 20th century. Electric guitar, tube amp, the familiar sound of haunting vibraphone chords, and sharp string eruptions inject a physicality into the work. In the same vein, Vicissitudes no. 1 by Du Yun is urgent, yet torn in identity. At first the saxophones rule the ensemble through free jazz, then a steel guitar centers the atmosphere before the percussion finally prevails. Mario Davidovsky's Festino is a playground for string trio members who have always wanted to imitate guitars with their instruments. Most of the piece is light, though somber in mood, with the real guitar leading the ensemble. The final work on the program is Magnus Lindberg's Linea d'ombra. The clarinet and flute are the early leaders, making their presence known with pointed articulations and light leaps and runs. The pitched percussion and guitar often act like an opposing duo. Breathy sounds and breathing are used in the piece's conclusion, and extended flute techniques and multiphonics from the clarinet appear in tasteful locations."
—Lamper, American Record Guide, January/February 2009
 
Состав
International Contemporary Ensemble, Daniel Lippel, guitar
По всем вопросам пишите личное сообщение пользователю M0p94ok.
18:02
181
Нет комментариев. Ваш будет первым!