Вы используете незарегистрированную версию компонента "Вкладки"!

Поиск

(Modern Creative / Avant-Garde / Free Improvisation) Scott Fields Ensemble - Fugu - 2010, FLAC (image+.cue), lossless

Треклист:
Scott Fields Ensemble - Fugu

Жанр: Modern Creative / Avant-Garde / Free Improvisation
Год выпуска диска: 2010
Производитель диска: Portugal (Clean Feed CF171)
Аудио кодек: FLAC
Тип рипа: image+.cue
Битрейт аудио: lossless
Продолжительность: 54:32
Источник: Собственный рип с оригинального диска
Scott Fields: nylon string guitar
Geoff Brady: percussion
John Padden: contrabass
Robert Stright: vibraphone
Matt Turner: cello
1. Poem for Joseph
2. The Big Mango
3. The Plagiarist
4. A Carrot is a Carrot
5. Fugu
Recorded and mixed at Smart Studios, Madison, Wisconsin, spring 1995.

 
Clean Feed
Fugu was recorded in 1995, not long after Fields returned to music after what he says were "15 years of trying to find something I liked to do better." (Fields was barely 21 when he quit music and, he now says, "it's not as though I was a big deal and anyone missed me. I was the only one who knew I was retired and even that took me a few years to realize.")
Fugu was first released on Fields' own, short-lived, label Geode. Fields wrote the compositions for dance, specifically for the chorographer Li Chiao-Ping. But, as Fields explains in his liner notes, the music's irregular (usually additive), and frequently changing, time signatures, not to mention numerous changes in tempo, proved too difficult for most dancers to follow. Of the five compositions on Fugu, only "The Plagiarist" is in a simple meter, 4/4. But its high tempo, just somewhat less than the 300 beats per minute marked on the score, presents its own difficulties for dance. One composition was choreographed and none were performed. Tonally all of the material, and to a large extent the improvised sections as well, work within what Fields says is a radically simplified version of Stephan Dembski's post-serial pitch organizations system, sometimes called a system of circles. This system generates related sets of seven-pitch scales that are used the same way as common major and minor scales, but in different patterns.
This version of the Scott Fields Ensemble grew out of Fields' first post-retirement group, the Silt Loam Ensemble, whose recorded output consisted of two cassette-only releases. Bassist John Padden, an original member of Silt Loam, was primarily a classical musician. Fields says Padden was one of his favorite people to play with because of his beautiful sound, solid time, and generous temperament. Geoff Brady, also a Fields favorite, joined Silt Loam shortly before it morphed into a Fields-led group. Padden and Brady, along with vibist Robert Stright, who earned a doctorate in music composition at the University of Wisconsin, appear on Fields' first Geode CD, Running with Scissors. For cellist Matt Turner, Fugu was the first of many recordings, tours, and performances with Fields. Turner also appears on the Fields recordings 48 Motives, Disaster at Sea, Sonotropism, 96 Gestures, and Christangelfox. Fields recruited Turner shortly after the cellist returned to his native Wisconsin from Boston. ~ Clean Feed
 
AMJ Review
Guitarist and composer Scott Fields has assembled his long-running ensemble for another foray into his strangely beautiful tonally organic universe. If Oregon had begun without horns, playing all Western instruments and moving through vanguard transpositions of serialism and post-Coltrane vanguardism, they might have sounded something like this. Fields writes delicately balanced pieces for strings and percussion that bridge the gap between jazz, new music, and free improvisation because they are simultaneously all of them and none of them at once. His sense of balance and harmony are impeccable as he shoves tiny angular figures against percussive accents ("The Plagiarist"), or opens the tone field with long, drawn out spaces draped with minimal finery ("Poem for Joseph"). This is not to say the band doesn't swing, because they do, just not in a linear way. Their reliance on each other to move a difficult harmonic sequence through to its fruition and into the field of "playing," as on the title track, creates in them a sense of driven tension, one that is equal pars abandon and nuance. This is an elegant, graceful, and very forward thinking approach to jazz. Highly recommended. ~ Thom Jurek, AMG
 
EAC Report
Exact Audio Copy V0.99 prebeta 5 from 4. May 2009
EAC extraction logfile from 18. February 2010, 20:33
Scott Fields Ensemble / Fugu
Used drive : hp DVD-RAM GH40L Adapter: 0 ID: 1
Read mode : Secure
Utilize accurate stream : Yes
Defeat audio cache : Yes
Make use of C2 pointers : No
Read offset correction : 667
Overread into Lead-In and Lead-Out : No
Fill up missing offset samples with silence : Yes
Delete leading and trailing silent blocks : No
Null samples used in CRC calculations : Yes
Used interface : Installed external ASPI interface
Used output format : User Defined Encoder
Selected bitrate : 1024 kBit/s
Quality : High
Add ID3 tag : No
Command line compressor : C:\Program Files\Exact Audio Copy\Flac\flac.exe
Additional command line options : -6 -V -T "ARTIST=%a" -T "TITLE=%t" -T "ALBUM=%g" -T "DATE=%y" -T "TRACKNUMBER=%n" -T "GENRE=%m" -T "COMMENT=EAC FLAC -6" %s
TOC of the extracted CD
Track | Start | Length | Start sector | End sector
---------------------------------------------------------
1 | 0:00.00 | 7:47.50 | 0 | 35074
2 | 7:47.50 | 11:34.40 | 35075 | 87164
3 | 19:22.15 | 6:51.62 | 87165 | 118051
4 | 26:14.02 | 18:48.63 | 118052 | 202714
5 | 45:02.65 | 9:29.30 | 202715 | 245419
Range status and errors
Selected range
Filename C:\Users\Igor\Music\eac\Scott Fields Ensemble - Fugu.wav
Peak level 97.9 %
Range quality 100.0 %
Test CRC 63065A0C
Copy CRC 63065A0C
Copy OK
No errors occurred
AccurateRip summary
Track 1 not present in database
Track 2 not present in database
Track 3 not present in database
Track 4 not present in database
Track 5 not present in database
None of the tracks are present in the AccurateRip database
End of status report
По всем вопросам пишите личное сообщение пользователю M0p94ok.
20:33
119
Нет комментариев. Ваш будет первым!