Вы используете незарегистрированную версию компонента "Вкладки"!

Поиск

(jazz, norway, orchestra, noise) Crimetime Orchestra feat Bjornar Andresen - Life is a Beautiful Monster - 2004, FLAC (tracks+.cue), lossless

(jazz, norway, orchestra, noise) Crimetime Orchestra feat Bjornar Andresen - Life is a Beautiful Monster - 2004, FLAC (tracks+.cue), lossless
Треклист:
Crimetime Orchestra feat Bjørnar Andresen - Life is a Beautiful Monster
Жанр: jazz, norway, orchestra, noise
Год выпуска диска: 2004
Производитель диска: norway, jazzaway
Аудио кодек: FLAC
Тип рипа: tracks+.cue
Битрейт аудио: lossless
Продолжительность: 01:04:26
Трэклист:
1 Life Is A Beautiful Monster (Part 1) (3:50)
2 Life Is A Beautiful Monster (Part 2) (11:19)
3 Life Is A Beautiful Monster (Part 3) (4:51)
4 Life Is A Beautiful Monster (Part 4) (22:13)
5 Life Is A Beautiful Monster (Part 5) (6:52)
6 Life Is A Beautiful Monster (Part 6) (4:39)
7 Life Is A Beautiful Monster (Part 7) (7:24)
8 Rest In Peace (3:24)
 
log
Exact Audio Copy V0.99 prebeta 4 from 23. January 2008
EAC extraction logfile from 21. April 2009, 18:01
Crimetime Orchestra / Life Is a Beautiful monster
Used drive : _NEC DVD_RW ND-1300A Adapter: 1 ID: 0
Read mode : Secure
Utilize accurate stream : Yes
Defeat audio cache : Yes
Make use of C2 pointers : No
Read offset correction : 48
Overread into Lead-In and Lead-Out : No
Fill up missing offset samples with silence : Yes
Delete leading and trailing silent blocks : No
Null samples used in CRC calculations : Yes
Used interface : Native Win32 interface for Win NT & 2000
Gap handling : Appended to previous track
Used output format : User Defined Encoder
Selected bitrate : 768 kBit/s
Quality : High
Add ID3 tag : No
Command line compressor : C:\Programfiler\FLAC\flac.exe
Additional command line options : -V -8 -T "artist=%a" -T "title=%t" -T "album=%g" -T "date=%y" -T "tracknumber=%n" -T "genre=%m" %s
TOC of the extracted CD
Track | Start | Length | Start sector | End sector
---------------------------------------------------------
1 | 0:00.00 | 3:50.42 | 0 | 17291
2 | 3:50.42 | 11:19.45 | 17292 | 68261
3 | 15:10.12 | 4:51.19 | 68262 | 90105
4 | 20:01.31 | 22:13.47 | 90106 | 190127
5 | 42:15.03 | 6:52.41 | 190128 | 221068
6 | 49:07.44 | 4:39.16 | 221069 | 242009
7 | 53:46.60 | 7:24.25 | 242010 | 275334
8 | 61:11.10 | 3:24.62 | 275335 | 290696
Track 1
Filename C:\EAC rips\Crimetime Orchestra - 2004 - Life Is a Beautiful monster\01 - Life Is a Beatiful monster (Part 1).wav
Pre-gap length 0:00:02.00
Peak level 96.8 %
Track quality 100.0 %
Test CRC C7A90EA8
Copy CRC C7A90EA8
Accurately ripped (confidence 1) [41ADA07A]
Copy OK
Track 2
Filename C:\EAC rips\Crimetime Orchestra - 2004 - Life Is a Beautiful monster\02 - Life Is a Beatiful monster (Part 2).wav
Pre-gap length 0:00:02.06
Peak level 96.9 %
Track quality 100.0 %
Test CRC 451EDFF0
Copy CRC 451EDFF0
Accurately ripped (confidence 1) [3FF59137]
Copy OK
Track 3
Filename C:\EAC rips\Crimetime Orchestra - 2004 - Life Is a Beautiful monster\03 - Life Is a Beatiful monster (Part 3).wav
Pre-gap length 0:00:02.31
Peak level 96.9 %
Track quality 100.0 %
Test CRC 352FE081
Copy CRC 352FE081
Accurately ripped (confidence 1) [0323EEE9]
Copy OK
Track 4
Filename C:\EAC rips\Crimetime Orchestra - 2004 - Life Is a Beautiful monster\04 - Life Is a Beatiful monster (Part 4).wav
Pre-gap length 0:00:01.07
Peak level 96.9 %
Track quality 100.0 %
Test CRC F28F7B50
Copy CRC F28F7B50
Accurately ripped (confidence 1) [BEC3AA15]
Copy OK
Track 5
Filename C:\EAC rips\Crimetime Orchestra - 2004 - Life Is a Beautiful monster\05 - Life Is a Beatiful monster (Part 5).wav
Pre-gap length 0:00:01.36
Peak level 96.8 %
Track quality 100.0 %
Test CRC 29540A16
Copy CRC 29540A16
Accurately ripped (confidence 1) [A7389EB7]
Copy OK
Track 6
Filename C:\EAC rips\Crimetime Orchestra - 2004 - Life Is a Beautiful monster\06 - Life Is a Beatiful monster (Part 6).wav
Pre-gap length 0:00:01.38
Peak level 96.9 %
Track quality 100.0 %
Test CRC A603A628
Copy CRC A603A628
Accurately ripped (confidence 1) [DBF6F7E0]
Copy OK
Track 7
Filename C:\EAC rips\Crimetime Orchestra - 2004 - Life Is a Beautiful monster\07 - Life Is a Beatiful monster (Part 7).wav
Pre-gap length 0:00:01.27
Peak level 96.8 %
Track quality 100.0 %
Test CRC 10F98D62
Copy CRC 10F98D62
Accurately ripped (confidence 1) [A877602E]
Copy OK
Track 8
Filename C:\EAC rips\Crimetime Orchestra - 2004 - Life Is a Beautiful monster\08 - Rest In Peace.wav
Peak level 96.7 %
Track quality 100.0 %
Test CRC 6600346A
Copy CRC 6600346A
Accurately ripped (confidence 1) [CC8765AB]
Copy OK
All tracks accurately ripped
No errors occurred
End of status report
 
cue
Код:
REM GENRE Jazz
REM DATE 2004
REM DISCID 660F2308
REM COMMENT "ExactAudioCopy v0.99pb4"
FILE "01 - Life Is a Beatiful monster (Part 1).flac" WAVE
  TRACK 01 AUDIO
    INDEX 01 00:00:00
  TRACK 02 AUDIO
    INDEX 00 03:48:36
FILE "02 - Life Is a Beatiful monster (Part 2).flac" WAVE
    INDEX 01 00:00:00
  TRACK 03 AUDIO
    INDEX 00 11:17:14
FILE "03 - Life Is a Beatiful monster (Part 3).flac" WAVE
    INDEX 01 00:00:00
  TRACK 04 AUDIO
    INDEX 00 04:50:12
FILE "04 - Life Is a Beatiful monster (Part 4).flac" WAVE
    INDEX 01 00:00:00
  TRACK 05 AUDIO
    INDEX 00 22:12:11
FILE "05 - Life Is a Beatiful monster (Part 5).flac" WAVE
    INDEX 01 00:00:00
  TRACK 06 AUDIO
    INDEX 00 06:51:03
FILE "06 - Life Is a Beatiful monster (Part 6).flac" WAVE
    INDEX 01 00:00:00
  TRACK 07 AUDIO
    INDEX 00 04:37:64
FILE "07 - Life Is a Beatiful monster (Part 7).flac" WAVE
    INDEX 01 00:00:00
FILE "08 - Rest In Peace.flac" WAVE
  TRACK 08 AUDIO
    INDEX 01 00:00:00
Доп. информация:
Внимание. Безумный норвежский нойзкоктейль. Эксперименты со звуком и ипровизационный полёт.
Фантастический альбом фантастического состава (см. лайн-ап), выпущенный на еще одном джазовом лейбле, входящем в "норвежскую троицу" наряду с Rune Grammofon и Jazzland. Ритм-секция The Thing, гитарист Noxagt, MoHa! и Jaga Jazzist, саксофонист Ultralyd, клавишник и владелец лейбла Jazzland Багге Вессельтофт и так далее, и так далее.
Альбом записан на студии Вессельтофта "Bugge's Room" в октябре 2004 года и посвящен памяти контрабасиста Бьорнара Андерсена, скончавшегося 3 недели спустя после завершения студийной сессии.
Bass [Electric] - Ingebrigt Håker Flaten
Double Bass, Effects - Bjørnar Andresen
Drums, Percussion - Paal Nilssen-Love
Engineer - Andy Mytteis
Guitar - Anders Hana
Mixed By - Reidar Skår
Saxophone [Alto], Producer, Arranged By [Horns] - Jon Klette
Saxophone [Tenor] - Kjetil Møster
Saxophone [Tenor], Arranged By [Horns] - Vidar Johansen
Synthesizer, Effects - Bugge Wesseltoft
Trombone - Øyvind Brække*
Trumpet - Sjur Miljeteig
Recorded at Bugges Room, October 6-7, 2004.
 
about
I heard a five-minute clip of Life Is a Beautiful Monster, a live-in-the-studio free-improv fusion blowout, on a CD sampler that came with The Wire magazine. It was compelling enough to set me on a year-long, off-and-on search for this album at non-import prices — easier said than done, as it turned out. I finally snagged it off of eBay, and found it worth the wait.
Dominated by the seven-part title piece, Life Is a Beautiful Monster features a ten-piece band that includes five horns but, if anything, is heaviest on the low end, with lots of rock-based drumming, throbbing electric bass, and distorted electronics. The overall vibe is one of intense, densely textured fusion with an almost space-rockish mentality. There's not much in the way of lengthy soloing, with the notable exception of a blazing tenor solo that takes up the first half of the third track; instead, there's a lot of free-form blowing on top of a wickedly grooving "rhythm and noise" (to borrow a term from Rova:rkestrova) section. The composed heads, such as they are, involve a lot of quick unison horn lines, but aside from a few phrases at the beginning and end of some tracks, this seems almost entirely freely improvised.
Everywhere you turn while listening to this album, there's high-energy free blowing, except for the centerpiece 22-minute "Part 4." The first two-thirds of this track consists of fairly restrained, eerily ambient spaciness, heavy on the obtuse electronics and long, droning notes. Slowly and inexorably it builds, though, to one of the most chaotically satisfying climaxes on the record (and there's some solid competition there). It's delightful stuff. Impressively, the latter half of the album after this dramatic climax doesn't take down the pace or intensity; in fact, "Part 5" features one of the band's heaviest grooves. These guys are in take-no-prisoners mode throughout.
To make an overly glib comparison to the most obvious of reference points, imagine if Miles Davis in his fusion period became enamored of collective improv of, say, John Coltrane's Ascension. You get both the dirty, funky beats of the former as well as the chaotic, joyful noise of the latter. It's no surprise, then, that I for one found this album well worth searching out.
review by Brandon Wu — 3-15-06
An amazing little group -- one that starts with the ensemble improvisation energy of John Coltrane's Ascension, but then takes off into a whole new electrified direction of its own! Crimetime Orchestra boast a heady rhythm section in the form of Bugge Wesseltoft on keyboards, Ingebrigt Haker Flaten on electric bass, and Paal Nilssen-Love on drums -- all players schooled in free jazz ways, but working here with an electrified sort of force -- almost a rockish fusion undercurrent, which is mixed beautifully with the complicated horn lines of the other members of the group. Bassist Bjornar Andressen brings in a double-heavy bottom to the record -- and other players include Vidar Johansen on tenor, Jon Klette on alto, Djetil Moster on tenor, Oyvind Brakke on trombone, Sjur Miljeteig on trumpet, and Anders Hana on guitar. Bugge recorded the whole thing, with some additional electric effects -- and titles include "Rest In Piece" and the seven-part "Live Is A Beautiful Monster" suite. © 1996-2009, Dusty Groove America, Inc.
Crimetime Orchestra is a ten-piece improv collective that includes such key players as drummer Paal Nilssen-Love, bassist Ingebrigt Håker Flaten, keyboardist Bugge Wesseltoft and saxophonist Vidar Johansen. This is also the very last recording which double bass icon Bjørnar Andresen contributed to. Sadly, the free improv pioneer passed away three weeks after recording ‘Life is a beautiful monster’. Crimetime Orchestra grab you by the scruff of the neck, slams you into walls of sound, then releases you in punch-drunk euphoria. This is full-contact music, not appropriate for a dinner party but perfect for times when life seems a bit mundane. It’s brutal; it’s out there but after all Crimetime Orchestra is, just as life, a beautiful monster.
Диск взят с другого трекера. Спасибо fuzzfolk
Any questions -> support@pro-jazz.com. По всем вопросам пишите -> support@pro-jazz.com
20:35
166
Нет комментариев. Ваш будет первым!