Вы используете незарегистрированную версию компонента "Вкладки"!

Поиск

(Free Improvisation / Avant-Garde / Experimental / Tzadik) Anthony Pateras - Chromatophore {Tzadik 8057} - 2008, FLAC (tracks+.cue), lossless

(Free Improvisation / Avant-Garde / Experimental / Tzadik) Anthony Pateras - Chromatophore {Tzadik 8057} - 2008, FLAC (tracks+.cue), lossless
Треклист:
Anthony Pateras - Chromatophore
Жанр: Free Improvisation / Avant-Garde / Experimental / Tzadik
Год выпуска диска: 2008
Производитель диска: USA (Tzadik 8057)
Аудио кодек: FLAC
Тип рипа: tracks+.cue
Битрейт аудио: lossless
Продолжительность: 57:45
Трэклист:
01. Chromatophore
02. 76755 (1 of 5)
03. 76755 (2 of 5)
04. 76755 (3 of 5)
05. 76755 (4 of 5)
06. 76755 (5 of 5)
07. Automatons
08. When Objects Dream
09. JWT
10. Autophagy
Доп. информация:
Personnel:
Natasha Anderson: Voice, Contrabass Recorder
Anthony Pateras: Conductor, Voice, Electronics, Prepared Piano, Doepfer A-100, Computer
Erkki Veltheim: Viola
Ensemble of the Australian National Academy of Music
Rebecca Chan: Violin
Benjamin Hanlon: Doublebass
Vivien Jeffrey: Violin
Nicholas Metcalfe: Cello
Christian Read: Viola
Esther Toh: Double Bass
James Wannan: Viola
Paul Zabrowarny: Cello
Ear Massage Percussion Quartet
Diego Espinosa: Percussion
Jose Garcia: Percussion
Juan Martinez: Percussion
Lester Rodriguez: Percussion
Australian Chamber Orchestra
Robin Fox: Max/msp Programming
Maxime Bibeau: Principal Bass
Simon Lear: Sound Diffusion
Christopher Moore: Principal Viola
Richard Tognetti: Artistic Director, Lead Violin
Timo-Veikko Valve: Principal Cello
Satu Vanska: Assistant Leader, Violin
Tzadik Info
 
скрытый текст
Cat. # 8057
Released Aug 2008
cd time - 57:45
US Price $16.00
Anthony Pateras is a composer/performer based in Melbourne who is as comfortable writing for full orchestra as he is performing in intimate improvisational groupings. Pateras represents the best in the new generation of musicians combining the spontaneity of improvisation with the formal logic of composition and for his second Tzadik CD he has chosen an eclectic mix of ensemble pieces that blend instrumental virtuosity and electro acoustic sonorities in startling new ways. Sound, texture and surprise from this marvelous new voice from Australia.
Происхождение Рипа: Найдено в просторах интернета... by grasprelease (thanks! / спасибо)
Где он взял его? - не имею понятия)))
------------
EAC Log:
 
скрытый текст
Exact Audio Copy V0.99 prebeta 5 from 4. May 2009
EAC extraction logfile from 22. September 2009, 16:05
Anthony Pateras / Chromatophore
Used drive : MATSHITADVD-R UJ-867 Adapter: 0 ID: 1
Read mode : Burst
Read offset correction : 0
Overread into Lead-In and Lead-Out : No
Fill up missing offset samples with silence : Yes
Delete leading and trailing silent blocks : No
Null samples used in CRC calculations : Yes
Used interface : Native Win32 interface for Win NT & 2000
Gap handling : Appended to previous track
Used output format : User Defined Encoder
Selected bitrate : 128 kBit/s
Quality : High
Add ID3 tag : Yes
Command line compressor : C:\Program Files\FLAC\flac.exe
Additional command line options : -V -8 -T "artist=%a" -T "title=%t" -T "album=%g" -T "date=%y" -T "tracknumber=%n" -T "genre=%m" %s
TOC of the extracted CD
Track | Start | Length | Start sector | End sector
---------------------------------------------------------
1 | 0:00.00 | 11:05.71 | 0 | 49945
2 | 11:05.71 | 1:57.37 | 49946 | 58757
3 | 13:03.33 | 1:52.38 | 58758 | 67195
4 | 14:55.71 | 2:16.36 | 67196 | 77431
5 | 17:12.32 | 2:04.24 | 77432 | 86755
6 | 19:16.56 | 1:52.10 | 86756 | 95165
7 | 21:08.66 | 10:09.50 | 95166 | 140890
8 | 31:18.41 | 13:00.71 | 140891 | 199461
9 | 44:19.37 | 2:52.39 | 199462 | 212400
10 | 47:12.01 | 10:34.55 | 212401 | 260005
Track 1
Filename C:\Rips\Anthony Pateras - Chromatophore (2008) [FLAC]\01 Chromatophore.wav
Pre-gap length 0:00:02.00
Timing problem 0:03:42
Peak level 97.7 %
Test CRC 4625667B
Copy CRC 4625667B
Copy finished
Track 2
Filename C:\Rips\Anthony Pateras - Chromatophore (2008) [FLAC]\02 76755.wav
Pre-gap length 0:00:00.34
Timing problem 0:01:33
Peak level 97.7 %
Test CRC BCFB4629
Copy CRC BCFB4629
Copy finished
Track 3
Filename C:\Rips\Anthony Pateras - Chromatophore (2008) [FLAC]\03 76755.wav
Pre-gap length 0:00:01.57
Peak level 97.7 %
Test CRC 8AF8A048
Copy CRC 8AF8A048
Copy OK
Track 4
Filename C:\Rips\Anthony Pateras - Chromatophore (2008) [FLAC]\04 76755.wav
Pre-gap length 0:00:01.54
Peak level 97.7 %
Test CRC 8E29627F
Copy CRC 8E29627F
Copy OK
Track 5
Filename C:\Rips\Anthony Pateras - Chromatophore (2008) [FLAC]\05 76755.wav
Pre-gap length 0:00:02.25
Peak level 97.7 %
Test CRC 3BBFBCEE
Copy CRC 3BBFBCEE
Copy OK
Track 6
Filename C:\Rips\Anthony Pateras - Chromatophore (2008) [FLAC]\06 76755.wav
Pre-gap length 0:00:01.58
Peak level 97.7 %
Test CRC 82E91F0C
Copy CRC 82E91F0C
Copy OK
Track 7
Filename C:\Rips\Anthony Pateras - Chromatophore (2008) [FLAC]\07 Automatons.wav
Pre-gap length 0:00:03.82
Timing problem 0:02:45
Timing problem 0:04:44
Peak level 97.7 %
Test CRC 6FC79AAE
Copy CRC 6FC79AAE
Copy finished
Track 8
Filename C:\Rips\Anthony Pateras - Chromatophore (2008) [FLAC]\08 When Objects Dream.wav
Pre-gap length 0:00:07.46
Timing problem 0:01:04
Timing problem 0:03:12
Peak level 97.7 %
Test CRC 52407FA5
Copy CRC 52407FA5
Copy finished
Track 9
Filename C:\Rips\Anthony Pateras - Chromatophore (2008) [FLAC]\09 JWT.wav
Pre-gap length 0:00:03.98
Timing problem 0:00:49
Peak level 97.7 %
Test CRC 33068BE3
Copy CRC 33068BE3
Copy finished
Track 10
Filename C:\Rips\Anthony Pateras - Chromatophore (2008) [FLAC]\10 Autophagy.wav
Pre-gap length 0:00:02.13
Timing problem 0:02:38
Timing problem 0:09:26
Peak level 97.7 %
Test CRC CD153F00
Copy CRC CD153F00
Copy finished
No errors occurred
End of status report
CUE:
 
скрытый текст
REM GENRE Avantgarde
REM DATE 2008
REM DISCID 930D8A0A
REM COMMENT "ExactAudioCopy v0.99pb5"
PERFORMER "Anthony Pateras"
TITLE "Chromatophore"
FILE "Anthony Pateras - Chromatophore (2008) [FLAC]\01 Chromatophore.wav" WAVE
TRACK 01 AUDIO
TITLE "Chromatophore"
PERFORMER "Anthony Pateras"
INDEX 01 00:00:00
TRACK 02 AUDIO
TITLE "76755"
PERFORMER "Anthony Pateras"
INDEX 00 11:05:45
FILE "Anthony Pateras - Chromatophore (2008) [FLAC]\02 76755.wav" WAVE
INDEX 01 00:00:00
TRACK 03 AUDIO
TITLE "76755"
PERFORMER "Anthony Pateras"
INDEX 00 01:55:69
FILE "Anthony Pateras - Chromatophore (2008) [FLAC]\03 76755.wav" WAVE
INDEX 01 00:00:00
TRACK 04 AUDIO
TITLE "76755"
PERFORMER "Anthony Pateras"
INDEX 00 01:50:72
FILE "Anthony Pateras - Chromatophore (2008) [FLAC]\04 76755.wav" WAVE
INDEX 01 00:00:00
TRACK 05 AUDIO
TITLE "76755"
PERFORMER "Anthony Pateras"
INDEX 00 02:14:17
FILE "Anthony Pateras - Chromatophore (2008) [FLAC]\05 76755.wav" WAVE
INDEX 01 00:00:00
TRACK 06 AUDIO
TITLE "76755"
PERFORMER "Anthony Pateras"
INDEX 00 02:02:55
FILE "Anthony Pateras - Chromatophore (2008) [FLAC]\06 76755.wav" WAVE
INDEX 01 00:00:00
TRACK 07 AUDIO
TITLE "Automatons"
PERFORMER "Anthony Pateras"
INDEX 00 01:48:23
FILE "Anthony Pateras - Chromatophore (2008) [FLAC]\07 Automatons.wav" WAVE
INDEX 01 00:00:00
TRACK 08 AUDIO
TITLE "When Objects Dream"
PERFORMER "Anthony Pateras"
INDEX 00 10:02:15
FILE "Anthony Pateras - Chromatophore (2008) [FLAC]\08 When Objects Dream.wav" WAVE
INDEX 01 00:00:00
TRACK 09 AUDIO
TITLE "JWT"
PERFORMER "Anthony Pateras"
INDEX 00 12:56:72
FILE "Anthony Pateras - Chromatophore (2008) [FLAC]\09 JWT.wav" WAVE
INDEX 01 00:00:00
TRACK 10 AUDIO
TITLE "Autophagy"
PERFORMER "Anthony Pateras"
INDEX 00 02:50:29
FILE "Anthony Pateras - Chromatophore (2008) [FLAC]\10 Autophagy.wav" WAVE
INDEX 01 00:00:00
Any questions -> support@pro-jazz.com. По всем вопросам пишите -> support@pro-jazz.com
20:32
132
Нет комментариев. Ваш будет первым!