Вы используете незарегистрированную версию компонента "Вкладки"!

Поиск

(Avant-Garde Jazz) Carlo Actis Dato Quartet & Laura Culver - Noblesse Oblige & Oltremare, Zig Zag (2 CD) - 1999, FLAC (image+.cue), lossless

(Avant-Garde Jazz) Carlo Actis Dato Quartet & Laura Culver - Noblesse Oblige & Oltremare, Zig Zag (2 CD) - 1999, FLAC (image+.cue), lossless
Треклист:
Carlo Actis Dato Quartet & Laura Culver - Noblesse Oblige & Oltremare, Zig Zag (2 CD)
Жанр: Avant-Garde Jazz
Год выпуска диска: 1999
Производитель диска: Italy, Splasc(h) Records CDH 513/4.2
Аудио кодек: FLAC
Тип рипа: image+.cue
Битрейт аудио: lossless
Продолжительность: 68:34/65:46
Трэклист:
Disc 1:
01. Pollo Fritto (4:20)
02. Noblesse Oblige (4:07)
03. Timimoun (5:35)
04. Un allegro complessino (1:54)
05. La festa del Santo (4:43)
06. Marcia dei Mamelucchi (1:49)
07. Konya Dance (6:35)
08. Tango Balengo (4:28)
09. Baden Baden ball (1:52)
10. Ginseng a colazione (3:41)
11. Jazz (3:14)
12. Haiti Seranade (3:06)
13. Bagdad boogie (6:28)
14. Wood U (5:36)
15. Summer in Bucarest (5:38)
16. Stalker (4:44)
17. Tico Tico (0:43)
Disc 2:
01. Perdasdefogu (6:27)
02. Moonlight in Budapest (2:06)
03. Portorico smog (3:37)
04. Tenoralto (3:06)
05. Golfo della sirte (4:08)
06. Melanconico cha-cha (3:10)
07. Elazig (3:34)
08. Habanera nella sera (4:25)
09. Chang-Sha (3:37)
10. Il Topo (4:12)
11. Kurdistan (2:24)
12. Tenera e la pioggia a Maracaibo (4:05)
13. Sioux (3:32)
14. Balon Blues (3:40)
15. M'zab (3:55)
16. Cellophone (3:38)
17. Cascisci (6:08)
Carlo Actis Dato: tenor & baritone saxes, bass clarinet
Piero Ponzo: alto & baritone saxes, piccolo & bass clarinet
Enrico Fazio: bass
Fiorenzo Sordini: drums, percussion & marimba
All musicians: voice & noise
Noblesse Oblige
Recorded at Blue Studios - Mondovi - Italy on July 19-20, 1986
Oltremare
Recorded at Blue Studios - Mondovi - Italy on October 11-12, 1987
Zig-Zag
Recorded at Blue Studios - Mondovi - Italy on March 3, 1989
 
Отчёт EAC (CD 1)
Exact Audio Copy V0.99 prebeta 5 from 4. May 2009
EAC extraction logfile from 2. April 2010, 19:35
Carlo Actis Dato Quartet & Laura Culver / Noblesse Oblige & Oltremare - Zig Zag CD 1
Used drive : PLEXTOR CD-R PX-W1210A Adapter: 0 ID: 1
Read mode : Secure
Utilize accurate stream : Yes
Defeat audio cache : Yes
Make use of C2 pointers : No
Read offset correction : 99
Overread into Lead-In and Lead-Out : Yes
Fill up missing offset samples with silence : Yes
Delete leading and trailing silent blocks : No
Null samples used in CRC calculations : Yes
Used interface : Native Win32 interface for Win NT & 2000
Used output format : User Defined Encoder
Selected bitrate : 128 kBit/s
Quality : High
Add ID3 tag : No
Command line compressor : C:\Program Files\Exact Audio Copy\Codecs\flac.exe
Additional command line options : -5 -V -T "artist=%a" -T "title=%t" -T "album=%g" -T "date=%y" -T "tracknumber=%n" -T "genre=%m" -T "comment=Track %n/%x" -T "comment=EAC Flac 1.2.1b -5" %s -o %d
TOC of the extracted CD
Track | Start | Length | Start sector | End sector
---------------------------------------------------------
1 | 0:00.00 | 4:19.42 | 0 | 19466
2 | 4:19.42 | 4:07.35 | 19467 | 38026
3 | 8:27.02 | 5:34.70 | 38027 | 63146
4 | 14:01.72 | 1:54.18 | 63147 | 71714
5 | 15:56.15 | 4:43.05 | 71715 | 92944
6 | 20:39.20 | 1:48.60 | 92945 | 101104
7 | 22:28.05 | 6:34.52 | 101105 | 130706
8 | 29:02.57 | 4:28.08 | 130707 | 150814
9 | 33:30.65 | 1:51.57 | 150815 | 159196
10 | 35:22.47 | 3:41.25 | 159197 | 175796
11 | 39:03.72 | 3:13.45 | 175797 | 190316
12 | 42:17.42 | 3:06.30 | 190317 | 204296
13 | 45:23.72 | 6:28.30 | 204297 | 233426
14 | 51:52.27 | 5:36.15 | 233427 | 258641
15 | 57:28.42 | 5:38.25 | 258642 | 284016
16 | 63:06.67 | 4:44.00 | 284017 | 305316
17 | 67:50.67 | 0:43.25 | 305317 | 308566
Range status and errors
Selected range
Filename E:\Music\Carlo Actis Dato - Noblesse Oblige & Oltremare, Zig-Zag [1999]\Carlo Actis Dato Quartet & Laura Culver - Noblesse Oblige & Oltremare - Zig Zag CD 1.wav
Peak level 100.0 %
Range quality 100.0 %
Copy CRC A00CD62B
Copy OK
No errors occurred
AccurateRip summary
Track 1 not present in database
Track 2 not present in database
Track 3 not present in database
Track 4 not present in database
Track 5 not present in database
Track 6 not present in database
Track 7 not present in database
Track 8 not present in database
Track 9 not present in database
Track 10 not present in database
Track 11 not present in database
Track 12 not present in database
Track 13 not present in database
Track 14 not present in database
Track 15 not present in database
Track 16 not present in database
Track 17 not present in database
None of the tracks are present in the AccurateRip database
End of status report
 
Отчёт EAC (CD 2)
Exact Audio Copy V0.99 prebeta 5 from 4. May 2009
EAC extraction logfile from 2. April 2010, 20:14
Carlo Actis Dato Quartet & Laura Culver / Noblesse Oblige & Oltremare - Zig Zag CD 2
Used drive : PLEXTOR CD-R PX-W1210A Adapter: 0 ID: 1
Read mode : Secure
Utilize accurate stream : Yes
Defeat audio cache : Yes
Make use of C2 pointers : No
Read offset correction : 99
Overread into Lead-In and Lead-Out : Yes
Fill up missing offset samples with silence : Yes
Delete leading and trailing silent blocks : No
Null samples used in CRC calculations : Yes
Used interface : Native Win32 interface for Win NT & 2000
Used output format : User Defined Encoder
Selected bitrate : 128 kBit/s
Quality : High
Add ID3 tag : No
Command line compressor : C:\Program Files\Exact Audio Copy\Codecs\flac.exe
Additional command line options : -5 -V -T "artist=%a" -T "title=%t" -T "album=%g" -T "date=%y" -T "tracknumber=%n" -T "genre=%m" -T "comment=Track %n/%x" -T "comment=EAC Flac 1.2.1b -5" %s -o %d
TOC of the extracted CD
Track | Start | Length | Start sector | End sector
---------------------------------------------------------
1 | 0:00.00 | 6:27.37 | 0 | 29061
2 | 6:27.37 | 2:06.13 | 29062 | 38524
3 | 8:33.50 | 3:36.55 | 38525 | 54779
4 | 12:10.30 | 3:06.32 | 54780 | 68761
5 | 15:16.62 | 4:08.18 | 68762 | 87379
6 | 19:25.05 | 3:10.25 | 87380 | 101654
7 | 22:35.30 | 3:34.37 | 101655 | 117741
8 | 26:09.67 | 4:24.48 | 117742 | 137589
9 | 30:34.40 | 3:37.27 | 137590 | 153891
10 | 34:11.67 | 4:11.53 | 153892 | 172769
11 | 38:23.45 | 2:23.72 | 172770 | 183566
12 | 40:47.42 | 4:04.63 | 183567 | 201929
13 | 44:52.30 | 3:32.37 | 201930 | 217866
14 | 48:24.67 | 3:40.10 | 217867 | 234376
15 | 52:05.02 | 3:54.55 | 234377 | 251981
16 | 55:59.57 | 3:38.28 | 251982 | 268359
17 | 59:38.10 | 6:08.37 | 268360 | 295996
Range status and errors
Selected range
Filename E:\Music\Carlo Actis Dato - Noblesse Oblige & Oltremare, Zig-Zag [1999]\Carlo Actis Dato Quartet & Laura Culver - Noblesse Oblige & Oltremare - Zig Zag CD 2.wav
Peak level 100.0 %
Range quality 100.0 %
Copy CRC 56456284
Copy OK
No errors occurred
AccurateRip summary
Track 1 not present in database
Track 2 not present in database
Track 3 not present in database
Track 4 not present in database
Track 5 not present in database
Track 6 not present in database
Track 7 not present in database
Track 8 not present in database
Track 9 not present in database
Track 10 not present in database
Track 11 not present in database
Track 12 not present in database
Track 13 not present in database
Track 14 not present in database
Track 15 not present in database
Track 16 not present in database
Track 17 not present in database
None of the tracks are present in the AccurateRip database
End of status report
Доп. информация: Три альбома на двух CD, рип мой, сканы прилагаются.
По всем вопросам пишите личное сообщение пользователю M0p94ok.
20:31
153
Нет комментариев. Ваш будет первым!